Loading...
Error

Скачать Кандагарский прорыв: Крепость войны / Kandahar Break: Fortress Of War (Дэвид Уитни) [2009, триллер, мелодрама, военный, HDRip] [DVO]+[Eng] торрент без регистрации

 
Статистика раздачи
Размер:  1,46 GB   |    Скачан:  114 раз
Сидов:  1  [  0 KB/s  ]  
 
Автор Сообщение

МихаНЕзатор

[] 

Страна: Великобритания
Студия: Millhouse Films
Жанр: триллер, мелодрама, военный
Год выпуска: 2009
Продолжительность: 01:34:24

Перевод: Профессиональный (двухголосый закадровый)
Субтитры: нет
Оригинальная аудиодорожка: Английский

Режиссер: Дэвид Уитни / David Whitney

В ролях: Шон Дули, Дин Эндрюс, Рашид Наз, Tatmain Ul Qulb, Хамид Шейх, Hidayat Saleem, Shista Khan, Мария Таир Кхан...

Описание: 1999 год. Британский инженер-сапёр, работающий на правительство Талибана в Афганистане, должен покинуть страну. Однако именно тогда его втягивают в смертельную игру, полную интриг и предательств.



Исходник: BDRip 720p
Тип релиза: BDRip,
Контейнер: AVI

Видео: 720x400 (16:9), 24.000 fps, XVID ~1815 kbps avg, 0.263 bit/pixel
Аудио 1: Русский 48 kHz, AC3, 2 ch, 192.00 kbps Constant
Аудио 2: Английский 48 kHz, AC3, 2 ch, 192.00 kbps Constant

Общее
Полное имя : Kandagarskii.proryv.Krepost.voiny.2009.P2.HDRip.avi
Формат : AVI
Формат/Информация : Audio Video Interleave
Размер файла : 1,46 Гбайт
Продолжительность : 1 ч. 34 м.
Общий поток : 2213 Кбит/сек
Программа кодирования : VirtualDubModRus 1.5.10.2 (build 2542/release)
Библиотека кодирования : VirtualDubMod build 2542/release

Видео
Идентификатор : 0
Формат : MPEG-4 Visual
Профиль формата : Advanced Simple@L5
Параметр BVOP формата : 1
Параметр QPel формата : Нет
Параметр GMC формата : Без точки перехода
Параметр матрицы формата : Выборочная
Идентификатор кодека : XVID
Идентификатор кодека/Подсказка : XviD
Продолжительность : 1 ч. 34 м.
Битрейт : 1815 Кбит/сек
Ширина : 720 пикселей
Высота : 400 пикселей
Соотношение сторон : 16:9
Частота кадров : 24,000 кадра/сек
Цветовое пространство : YUV
Субдискретизация насыщенности : 4:2:0
Битовая глубина : 8 бит
Тип развёртки : Прогрессивная
Метод сжатия : С потерями
Бит/(Пиксели*Кадры) : 0.263
Размер потока : 1,20 Гбайт (82%)
Библиотека кодирования : XviD 65

Аудио #1
Идентификатор : 1
Формат : AC-3
Формат/Информация : Audio Coding 3
Расширение режима : CM (complete main)
Параметр Endianness формата : Big
Идентификатор кодека : 2000
Продолжительность : 1 ч. 34 м.
Вид битрейта : Постоянный
Битрейт : 192 Кбит/сек
Каналы : 2 канала
Расположение каналов : Front: L R
Частота : 48,0 КГц
Битовая глубина : 16 бит
Метод сжатия : С потерями
Размер потока : 130 Мбайт (9%)
Выравнивание : Разделение по промежуткам
Продолжительность промежутка : 42 мс. (1,00 видеокадр)
Время предзагрузки промежутка : 500 мс.

Аудио #2
Идентификатор : 2
Формат : AC-3
Формат/Информация : Audio Coding 3
Профиль формата : Dolby Digital
Расширение режима : CM (complete main)
Параметр Endianness формата : Big
Идентификатор кодека : 2000
Продолжительность : 1 ч. 34 м.
Вид битрейта : Постоянный
Битрейт : 192 Кбит/сек
Каналы : 2 канала
Расположение каналов : Front: L R
Частота : 48,0 КГц
Битовая глубина : 16 бит
Метод сжатия : С потерями
Размер потока : 130 Мбайт (9%)
Выравнивание : Разделение по промежуткам
Продолжительность промежутка : 42 мс. (1,00 видеокадр)
Время предзагрузки промежутка : 500 мс.

c http://goldenshara.com/viewtopic.php?t=8622

http://screenshotcomparison.com/comparison/38937 - у конкурента квадраты + отсутствует оригинальная дорожка



Скачать Кандагарский.прорыв.Крепость.войны.Kandahar.Break.Fortress.Of.War.(Дэвид.Уитни).[2009.триллер.мелодрама.военный.HDRip].[DVO]+[Eng].torrent без регистрации
Золото ЗОЛОТАЯ РАЗДАЧА! СКАЧАННОЕ НЕ ЗАСЧИТЫВАЕТСЯ! Золото
Дата: Зарегистрирован   [ Тип: внутренний ] Как тут cкачать?
MAGNET ссылка
MAGNET ссылка


Скачать .torrent

15 KB

Статус: проверено DHT
Скачан: торрент - 114 раз, раздача полностью - 30 раз
Размер: 1,46 GB
Оценка:  - (Голосов: 0)
Поблагодарили: 2
Поделиться ссылкой на эту раздачу с друзьями:
В контактеFacebookОдноклассникиTwitterLivejournalМой МирLiveinternet
 

 
Показать сообщения:    


Вы не можете начинать темы
Вы не можете отвечать на сообщения
Вы не можете редактировать свои сообщения
Вы не можете удалять свои сообщения
Вы не можете голосовать в опросах
Вы не можете прикреплять файлы к сообщениям
Вы можете скачивать файлы