Loading...
Error

Скачать Водитель / The Driver (Уолтер Хилл / Walter Hill) [1978 г., Триллер Боевик, DVDRip] [AVO] (А.Михалев) + [AVO] (Г.Либергал) торрент без регистрации

 
Статистика раздачи
Размер:  1,37 GB   |    Скачан:  100 раз
Сидов:  1  [  0 KB/s  ]  
 
Автор Сообщение

leon030982

[] 

Водитель / The Driver



Год выпуска: 1978
Страна: США / EMI Films
Жанр: Триллер, драма, криминал
Продолжительность: 01:29:23
Перевод#1: Авторский (одноголосый)[А.Михалев]
Перевод#2: Авторский (одноголосый)[ Г.Либергал]
Русские субтитры: нет
Режиссер: Уолтер Хилл / Walter Hill
В ролях: Райан О`Нил, Брюс Дерн, Изабель Аджани, Рони Блейкли, Мэтт Кларк, Феличе Орланди, Джозеф Уолш, Руди Рамос, Денни Мако, Фрэнк Бруно
Описание: Неприятности аса — водителя и угонщика автомобилей начинаются в тот момент, когда он становится соучастником ограбления банка. Водитель в бегах ведет настоящую дуэль с беспощадным полицейским, расставляющим ловушки на пути беглеца. Знакомство с прекрасной, но не предсказуемой в поступках женщиной — азартным игроком, которую во всей этой истории привлекает не результат, а участие, усложняет жизнь водителя.


Качество: DVDRip
Формат: AVI
Видео кодек: XviD
Аудио кодек: AC3
Видео: 720x416 (1.73:1), 25 fps, XviD build 47 ~1839 kbps avg, 0.25 bit/pixel
Аудио#1: 48 kHz, AC3 Dolby Digital, 2/0 (L,R) ch, ~192.00 kbps avg [А.Михалев]
Аудио#2: 48 kHz, AC3 Dolby Digital, 2/0 (L,R) ch, ~192.00 kbps avg [Г.Либергал]

В фильме не упоминаются имена ни одного из персонажей.
Райан О`Нил произносит в течение фильма всего 350 слов.
По мотивам данного фильма создана знаменитая видеоигра с одноименным названием для игровой консоли Sony Playstation 1
E:\INTERNET\DRIVER.avi
General
Complete name : E:\INTERNET\DRIVER.avi
Format : AVI
Format/Info : Audio Video Interleave
File size : 1.37 GiB
Duration : 1h 27mn
Overall bit rate : 2 233 Kbps
Writing application : VirtualDubMod 1.5.4.1 (build 2178/release)
Writing library : VirtualDubMod build 2178/release
Video #0
ID : 0
Format : MPEG-4 Visual
Format profile : Advanced Simple@L5
Format settings, BVOP : 1
Format settings, QPel : No
Format settings, GMC : No warppoints
Format settings, Matrix : Custom
Codec ID : XVID
Codec ID/Hint : XviD
Duration : 1h 27mn
Bit rate : 1 840 Kbps
Width : 720 pixels
Height : 416 pixels
Display aspect ratio : 1.731
Frame rate : 25.000 fps
Color space : YUV
Chroma subsampling : 4:2:0
Bit depth : 8 bits
Scan type : Progressive
Compression mode : Lossy
Bits/(Pixel*Frame) : 0.246
Stream size : 1.13 GiB (82%)
Writing library : XviD 1.2.0.dev47 (UTC 2006-11-01)
Audio #1
ID : 1
Format : AC-3
Format/Info : Audio Coding 3
Mode extension : CM (complete main)
Format settings, Endianness : Big
Codec ID : 2000
Duration : 1h 27mn
Bit rate mode : Constant
Bit rate : 192 Kbps
Channel(s) : 2 channels
Channel positions : Front: L R
Sampling rate : 48.0 KHz
Bit depth : 16 bits
Compression mode : Lossy
Stream size : 120 MiB (9%)
Alignment : Split accross interleaves
Interleave, duration : 96 ms (2.40 video frames)
Interleave, preload duration : 96 ms
Language : Russian
Audio #2
ID : 2
Format : AC-3
Format/Info : Audio Coding 3
Mode extension : CM (complete main)
Format settings, Endianness : Big
Codec ID : 2000
Duration : 1h 27mn
Bit rate mode : Constant
Bit rate : 192 Kbps
Channel(s) : 2 channels
Channel positions : Front: L R
Sampling rate : 48.0 KHz
Bit depth : 16 bits
Compression mode : Lossy
Stream size : 120 MiB (9%)
Alignment : Split accross interleaves
Interleave, duration : 96 ms (2.40 video frames)
Interleave, preload duration : 96 ms
Language : Russian



Скачать Водитель.The.Driver.(Уолтер.Хилл.Walter.Hill).[1978.г.Триллер.Боевик.DVDRip].[AVO].(А.Михалев).+.[AVO].(Г.Либергал).torrent без регистрации
Золото ЗОЛОТАЯ РАЗДАЧА! СКАЧАННОЕ НЕ ЗАСЧИТЫВАЕТСЯ! Золото
Дата: Зарегистрирован   [ Тип: внутренний ] Как тут cкачать?
MAGNET ссылка
MAGNET ссылка


Скачать .torrent

14 KB

Статус: проверено DHT
Скачан: торрент - 100 раз, раздача полностью - 4 раз
Размер: 1,37 GB
Оценка:  5 (Голосов: 1)
Поблагодарили: 2
Поделиться ссылкой на эту раздачу с друзьями:
В контактеFacebookОдноклассникиTwitterLivejournalМой МирLiveinternet
 

 

leon030982

[] 

фильм супер ay всякие форсажики отдыхают ag
 
Показать сообщения:    


Вы не можете начинать темы
Вы не можете отвечать на сообщения
Вы не можете редактировать свои сообщения
Вы не можете удалять свои сообщения
Вы не можете голосовать в опросах
Вы не можете прикреплять файлы к сообщениям
Вы можете скачивать файлы