Loading...
Error

Скачать Мерантау / Воин Мерантау / Merantau (Гарет Эванс) [2009, экшн, боевик, BDRip-AVC] [DVO]+[VO]+[Sub] торрент без регистрации

 
Статистика раздачи
Размер:  2,37 GB   |    Скачан:  110 раз
Сидов:  1  [  0 KB/s  ]  
 
Автор Сообщение

Marsianka

[] 

Информация о фильме
Название: Мерантау / Воин Мерантау
Оригинальное название: Merantau
Год выхода: 2009
Жанр: экшн, боевик
Режиссер: Гарет Эванс
В ролях: Ико Ювайс, Сиска Джесика, Кристин Хаким, Мэдс Коудал, Юсуф Аулиа, Лорен Басон, Алекс Аббад, Донни Аламся

О фильме: В посёлке Минангкабау, что в Западной Суматре, юноша по имени Юда, изучающий стиль Харимау Силат, находится на финальной стадии подготовки к «Мерантау». Смысл этого древнего обряда заключается в том, что молодые люди при достижении определённого возраста должны забыть обо всех удобствах идиллического посёлка и добиться успеха в городе Джакарта. Там Юда случайно спасает сироту Астри от банды европейцев, похитителей людей, которую возглавляют психопат Рэтгер и его помощник Люк...



Выпущено: Индонезия
Продолжительность: 01:51:47
Перевод: Любительский (двухголосый) / Любительский (одноголосый)
Субтитры: Русские, английские
Дата релиза: 28.08.2013

Файл
Кодек: Н264
Качество: BDRip (AVC)
Видео: MPEG-4 AVC, 1999 Кбит/с, 1024х576, 23.976 Кадр/с
Аудио: Dolby Digital Audio Russian 2.0 / 48 kHz / 192 kbps [Zamez]
Аудио: Dolby Digital Audio Russian 2.0 / 48 kHz / 192 kbps [Anubus]
Аудио: Dolby Digital Audio Russian 2.0 / 48 kHz / 192 kbps [DVO]
английский (AC3, 6 ch, 448 Кбит/с)
Общее
Уникальный идентификатор : 217801775906728855044766477040599581695 (0xA3DB18A19BC13D2B99E663DAAAFE43FF)
Полное имя : E:2Merantau.2009.x264.BDRip.(AVC).ExKinoRay.mkv
Формат : Matroska
Размер файла : 2,37 Гбайт
Продолжительность : 1 ч. 52 м.
Общий поток : 3024 Кбит/сек
Название фильма : Merantau.2009.x264.BDRip.(AVC).ExKinoRay
Дата кодирования : UTC 2013-08-29 17:20:38
Программа кодирования : mkvmerge v4.0.0 ('The Stars were mine') сборка от Jun 6 2010 16:18:42
Библиотека кодирования : libebml v1.0.0 + libmatroska v1.0.0

Видео
Идентификатор : 1
Формат : AVC
Формат/Информация : Advanced Video Codec
Профиль формата : High@L4.1
Параметр CABAC формата : Да
Параметр ReFrames формата : 8 кадров
Идентификатор кодека : V_MPEG4/ISO/AVC
Продолжительность : 1 ч. 52 м.
Битрейт : 1999 Кбит/сек
Ширина : 1024 пикс.
Высота : 576 пикс.
Соотношение сторон : 16:9
Частота кадров : 23,976 кадр/сек
Цветовое пространство : YUV
Подвыборка цветности : 4:2:0
Битовая глубина : 8 бит
Тип развёртки : Прогрессивная
Бит/(Пиксели*Кадры) : 0.141
Размер потока : 1,52 Гбайт (64%)
Заголовок : Rip by Enigma-Vladislav71
Библиотека кодирования : x264 core 129 r2245 bc13772
Настройки программы : cabac=1 / ref=8 / deblock=1:-2:-2 / analyse=0x3:0x133 / me=umh / subme=11 / psy=1 / psy_rd=1.00:0.00 / mixed_ref=1 / me_range=48 / chroma_me=1 / trellis=2 / 8x8dct=1 / cqm=0 / deadzone=21,11 / fast_pskip=0 / chroma_qp_offset=-2 / threads=3 / lookahead_threads=1 / sliced_threads=0 / nr=0 / decimate=0 / interlaced=0 / bluray_compat=0 / constrained_intra=0 / bframes=8 / b_pyramid=2 / b_adapt=2 / b_bias=0 / direct=3 / weightb=1 / open_gop=0 / weightp=2 / keyint=240 / keyint_min=23 / scenecut=40 / intra_refresh=0 / rc_lookahead=40 / rc=2pass / mbtree=1 / bitrate=1999 / ratetol=1.0 / qcomp=0.60 / qpmin=10 / qpmax=51 / qpstep=4 / cplxblur=20.0 / qblur=0.5 / ip_ratio=1.40 / aq=2:1.00
Язык : English

Аудио #1
Идентификатор : 2
Формат : AC-3
Формат/Информация : Audio Coding 3
Расширение режима : CM (complete main)
Идентификатор кодека : A_AC3
Продолжительность : 1 ч. 52 м.
Вид битрейта : Постоянный
Битрейт : 192 Кбит/сек
Каналы : 2 канала
Расположение каналов : Front: L R
Частота : 48,0 КГц
Битовая глубина : 16 бит
Метод сжатия : С потерями
Размер потока : 154 Мбайт (6%)
Заголовок : [Zamez]
Язык : Russian

Аудио #2
Идентификатор : 3
Формат : AC-3
Формат/Информация : Audio Coding 3
Расширение режима : CM (complete main)
Идентификатор кодека : A_AC3
Продолжительность : 1 ч. 52 м.
Вид битрейта : Постоянный
Битрейт : 192 Кбит/сек
Каналы : 2 канала
Расположение каналов : Front: L R
Частота : 48,0 КГц
Битовая глубина : 16 бит
Метод сжатия : С потерями
Размер потока : 154 Мбайт (6%)
Заголовок : [Anubus]
Язык : Russian

Аудио #3
Идентификатор : 4
Формат : AC-3
Формат/Информация : Audio Coding 3
Расширение режима : CM (complete main)
Идентификатор кодека : A_AC3
Продолжительность : 1 ч. 52 м.
Вид битрейта : Постоянный
Битрейт : 192 Кбит/сек
Каналы : 2 канала
Расположение каналов : Front: L R
Частота : 48,0 КГц
Битовая глубина : 16 бит
Метод сжатия : С потерями
Размер потока : 154 Мбайт (6%)
Заголовок : [DVO]
Язык : Russian

Аудио #4
Идентификатор : 5
Формат : AC-3
Формат/Информация : Audio Coding 3
Расширение режима : CM (complete main)
Идентификатор кодека : A_AC3
Продолжительность : 1 ч. 52 м.
Вид битрейта : Постоянный
Битрейт : 448 Кбит/сек
Каналы : 6 каналов
Расположение каналов : Front: L C R, Side: L R, LFE
Частота : 48,0 КГц
Битовая глубина : 16 бит
Метод сжатия : С потерями
Размер потока : 359 Мбайт (15%)
Заголовок : Английский
Язык : English

Текст #1
Идентификатор : 6
Формат : UTF-8
Идентификатор кодека : S_TEXT/UTF8
Идентификатор кодека/Информация : UTF-8 Plain Text
Язык : Russian

Текст #2
Идентификатор : 7
Формат : UTF-8
Идентификатор кодека : S_TEXT/UTF8
Идентификатор кодека/Информация : UTF-8 Plain Text
Язык : English
Релиз от:

Авторы релиза:



Скачать Мерантау.Воин.Мерантау.Merantau.(Гарет.Эванс).[2009.экшн.боевик.BDRip-AVC].[DVO]+[VO]+[Sub].torrent без регистрации
Золото ЗОЛОТАЯ РАЗДАЧА! СКАЧАННОЕ НЕ ЗАСЧИТЫВАЕТСЯ! Золото
Дата: Зарегистрирован   [ Тип: внутренний ] Как тут cкачать?
MAGNET ссылка
MAGNET ссылка


Скачать .torrent

12 KB

Статус: проверено DHT
Скачан: торрент - 110 раз, раздача полностью - 56 раз
Размер: 2,37 GB
Оценка:  5 (Голосов: 1)
Поблагодарили: 3
Поделиться ссылкой на эту раздачу с друзьями:
В контактеFacebookОдноклассникиTwitterLivejournalМой МирLiveinternet
 

 
Показать сообщения:    


Вы не можете начинать темы
Вы не можете отвечать на сообщения
Вы не можете редактировать свои сообщения
Вы не можете удалять свои сообщения
Вы не можете голосовать в опросах
Вы не можете прикреплять файлы к сообщениям
Вы можете скачивать файлы