Loading...
Error

Скачать Неприятности с обезьянкой / Monkey trouble (Франко Амурри) [1994, комедия, семейный, DVDRip-AVC] [MVO]+[AVO]x3+[Оригинал] торрент без регистрации

 
Статистика раздачи
Размер:  2,19 GB   |    Скачан:  107 раз

Полного источника не было: 24 минуты

 
Автор Сообщение

Marsianka

[] 

Год выпуска: 1994
Страна: США, Япония
Жанр: комедия, семейный
Продолжительность: 01:36:08

Перевод: Профессиональный (многололосый закадровый) от ОРТ + неопознанный и Авторский (одноголосый, закадровый) - 3 варианта, Андрей Гаврилов, Василий Горчаков и Павел Санаев
Субтитры: нет
Оригинальная дорожка: английский

Режиссер: Франко Амурри / Franco Amurri

В ролях: Тора Берч / Thora Birch, Мими Роджерс / Mimi Rogers, Кристофер МакДоналд / Christopher McDonald, Харви Кайтел / Harvey Keitel, Виктор Арго / Victor Argo, Роберт Миранда / Robert Miranda, Кевин Скэннелл / Kevin Scannell

Описание: Мелкий мошенник Азро выдрессировал мартышку воровать деньги и ценности. От него уходит жена, и, напившись, Азро избивает мартышку. Мартышка убегает к девятилетней девочке Еве, квартиру которой она ограбила.
Девочка отучает мартышку от «криминального творчества». Азро, нанятый мафией для крупной аферы и уже получивший крупный аванс, был просто в шоке от такого исправления.


Исходник: DVD5
Качество: DVDRip-AVC
Формат: MKV
Видео: 720x468@832x468 (16:9), 23.976 fps, H264 ~ 2166 kbps avg, 0.268 bit/pixel
Аудио 1: Russian, AC3, 2/0 (L,R) ch, 128 kbps, Delay 0 mSec Многоголосый ОРТ
Аудио 2: Russian, AC3, 2/0 (L,R) ch, 128 kbps, Delay 0 mSec Многоголосый неопознанный
Аудио 3: Russian, AC3, 2/0 (L,R) ch, 128 kbps, Delay 0 mSec Андрей Гаврилов
Аудио 4: Russian, AC3, 2/0 (L,R) ch, 128 kbps, Delay 0 mSec Василий Горчаков
Аудио 5: Russian, AC3, 2/0 (L,R) ch, 128 kbps, Delay 0 mSec Павел Санаев
Аудио 6: English, AC3, 3/2 (L,C,R,SL,SR)+LFE ch, 448 kbps
Раздача от:

Общее
Полное имя : Nepriyatnosti.s.obezyankoi.1994.P.DVDRip-AVC_[Youtracker]_by_AVP Studio.mkv
Формат : Matroska
Версия формата : Version 2
Размер файла : 2,19 Гбайт
Продолжительность : 1 ч. 36 м.
Общий поток : 3257 Кбит/сек
Название фильма : Nepriyatnosti.s.obezyankoi.1994.P.DVDRip-AVC_[Youtracker]_by_AVP Studio
Дата кодирования : UTC 2012-10-05 20:40:46
Программа кодирования : mkvmerge v5.8.0 ('No Sleep / Pillow') built on Sep 2 2012 15:37:04
Библиотека кодирования : libebml v1.2.3 + libmatroska v1.3.0

Видео
Идентификатор : 1
Формат : AVC
Формат/Информация : Advanced Video Codec
Профиль формата : High@L4.1
Параметр CABAC формата : Да
Параметр ReFrames формата : 11 кадров
Идентификатор кодека : V_MPEG4/ISO/AVC
Продолжительность : 1 ч. 36 м.
Битрейт : 2166 Кбит/сек
Ширина : 720 пикселей
Высота : 468 пикселей
Соотношение сторон : 16:9
Соотношение сторон в оригинале : 16:9
Частота кадров : 23,976 кадра/сек
Цветовое пространство : YUV
Субдискретизация насыщенности : 4:2:0
Битовая глубина : 8 бит
Тип развёртки : Прогрессивная
Бит/(Пиксели*Кадры) : 0.268
Размер потока : 1,41 Гбайт (65%)
Заголовок : Источник DVD
Библиотека кодирования : x264 core 119 r2106 07efeb4
Настройки программы : cabac=1 / ref=11 / deblock=1:-1:-1 / analyse=0x3:0x113 / me=umh / subme=9 / psy=1 / psy_rd=1.00:0.20 / mixed_ref=1 / me_range=32 / chroma_me=1 / trellis=1 / 8x8dct=1 / cqm=0 / deadzone=21,11 / fast_pskip=0 / chroma_qp_offset=-3 / threads=6 / sliced_threads=0 / nr=0 / decimate=1 / interlaced=0 / bluray_compat=0 / constrained_intra=0 / bframes=8 / b_pyramid=2 / b_adapt=1 / b_bias=0 / direct=3 / weightb=1 / open_gop=0 / weightp=2 / keyint=240 / keyint_min=23 / scenecut=40 / intra_refresh=0 / rc_lookahead=60 / rc=2pass / mbtree=1 / bitrate=2166 / ratetol=1.0 / qcomp=0.60 / qpmin=0 / qpmax=69 / qpstep=4 / cplxblur=20.0 / qblur=0.5 / ip_ratio=1.40 / aq=1:1.00
Язык : English
Default : Да
Forced : Нет

Аудио #1
Идентификатор : 2
Формат : AC-3
Формат/Информация : Audio Coding 3
Расширение режима : CM (complete main)
Идентификатор кодека : A_AC3
Продолжительность : 1 ч. 36 м.
Вид битрейта : Постоянный
Битрейт : 128 Кбит/сек
Каналы : 2 канала
Расположение каналов : Front: L R
Частота : 48,0 КГц
Битовая глубина : 16 бит
Метод сжатия : С потерями
Размер потока : 88,0 Мбайт (4%)
Заголовок : ОРТ128
Язык : Russian
Default : Да
Forced : Нет

Аудио #2
Идентификатор : 3
Формат : AC-3
Формат/Информация : Audio Coding 3
Расширение режима : CM (complete main)
Идентификатор кодека : A_AC3
Продолжительность : 1 ч. 36 м.
Вид битрейта : Постоянный
Битрейт : 128 Кбит/сек
Каналы : 2 канала
Расположение каналов : Front: L R
Частота : 48,0 КГц
Битовая глубина : 16 бит
Метод сжатия : С потерями
Размер потока : 88,0 Мбайт (4%)
Заголовок : МVО 128 источник DVD
Язык : Russian
Default : Нет
Forced : Нет

Аудио #3
Идентификатор : 4
Формат : AC-3
Формат/Информация : Audio Coding 3
Расширение режима : CM (complete main)
Идентификатор кодека : A_AC3
Продолжительность : 1 ч. 36 м.
Вид битрейта : Постоянный
Битрейт : 128 Кбит/сек
Каналы : 2 канала
Расположение каналов : Front: L R
Частота : 48,0 КГц
Битовая глубина : 16 бит
Метод сжатия : С потерями
Размер потока : 88,0 Мбайт (4%)
Заголовок : Гаврилов 128 источник DVD
Язык : Russian
Default : Нет
Forced : Нет

Аудио #4
Идентификатор : 5
Формат : AC-3
Формат/Информация : Audio Coding 3
Расширение режима : CM (complete main)
Идентификатор кодека : A_AC3
Продолжительность : 1 ч. 36 м.
Вид битрейта : Постоянный
Битрейт : 128 Кбит/сек
Каналы : 2 канала
Расположение каналов : Front: L R
Частота : 48,0 КГц
Битовая глубина : 16 бит
Метод сжатия : С потерями
Размер потока : 88,0 Мбайт (4%)
Заголовок : Горчаков 128
Язык : Russian
Default : Нет
Forced : Нет

Аудио #5
Идентификатор : 6
Формат : AC-3
Формат/Информация : Audio Coding 3
Расширение режима : CM (complete main)
Идентификатор кодека : A_AC3
Продолжительность : 1 ч. 36 м.
Вид битрейта : Постоянный
Битрейт : 128 Кбит/сек
Каналы : 2 канала
Расположение каналов : Front: L R
Частота : 48,0 КГц
Битовая глубина : 16 бит
Метод сжатия : С потерями
Размер потока : 88,0 Мбайт (4%)
Заголовок : Санаев 128
Язык : Russian
Default : Нет
Forced : Нет

Аудио #6
Идентификатор : 7
Формат : AC-3
Формат/Информация : Audio Coding 3
Расширение режима : CM (complete main)
Идентификатор кодека : A_AC3
Продолжительность : 1 ч. 36 м.
Вид битрейта : Постоянный
Битрейт : 448 Кбит/сек
Каналы : 6 каналов
Расположение каналов : Front: L C R, Side: L R, LFE
Частота : 48,0 КГц
Битовая глубина : 16 бит
Метод сжатия : С потерями
Размер потока : 308 Мбайт (14%)
Заголовок : Источник DVD
Язык : English
Default : Нет
Forced : Нет

Меню
00:00:00.000 : ru:00:00:00.000000000
00:05:00.000 : :00:05:00.000000000
00:10:00.000 : :00:10:00.000000000
00:15:00.000 : :00:15:00.000000000
00:20:00.000 : :00:20:00.000000000
00:25:00.000 : :00:25:00.000000000
00:30:00.000 : :00:30:00.000000000
00:35:00.000 : :00:35:00.000000000
00:40:00.000 : :00:40:00.000000000
00:45:00.000 : :00:45:00.000000000
00:50:00.000 : :00:50:00.000000000
00:55:00.000 : :00:55:00.000000000
01:00:00.000 : :01:00:00.000000000
01:05:00.000 : :01:05:00.000000000
01:10:00.000 : :01:10:00.000000000
01:15:00.000 : :01:15:00.000000000
01:20:00.000 : :01:20:00.000000000
01:25:00.000 : :01:25:00.000000000
01:30:00.000 : :01:30:00.000000000



Скачать Неприятности.с.обезьянкой.Monkey.trouble.(Франко.Амурри).[1994.комедия.семейный.DVDRip-AVC].[MVO]+[AVO]x3+[Оригинал].torrent без регистрации
Золото ЗОЛОТАЯ РАЗДАЧА! СКАЧАННОЕ НЕ ЗАСЧИТЫВАЕТСЯ! Золото
Дата: Зарегистрирован   [ Тип: внутренний ] Как тут cкачать?
MAGNET ссылка
MAGNET ссылка


Скачать .torrent

12 KB

Статус: проверено DHT
Скачан: торрент - 107 раз, раздача полностью - 2 раз
Размер: 2,19 GB
Оценка:  - (Голосов: 0)
Поблагодарили: 2
Поделиться ссылкой на эту раздачу с друзьями:
В контактеFacebookОдноклассникиTwitterLivejournalМой МирLiveinternet
 

 
Показать сообщения:    


Вы не можете начинать темы
Вы не можете отвечать на сообщения
Вы не можете редактировать свои сообщения
Вы не можете удалять свои сообщения
Вы не можете голосовать в опросах
Вы не можете прикреплять файлы к сообщениям
Вы можете скачивать файлы