Loading...
Error

Скачать Если бы я был тобой 2 / Se Eu Fosse Voce 2 (Дэниэл Фильу) [2009, комедия, DVDRip] [DVO] торрент без регистрации

 
Статистика раздачи
Размер:  1,46 GB   |    Скачан:  5528 раз

Полного источника не было: 28 минут

 
Автор Сообщение

Marsianka

[] 

Год выпуска: 2009
Страна: Бразилия
Киностудии: Globo Filmes, Lereby Productions...

Жанр: комедия
Продолжительность: 01:37:48

Перевод: Профессиональный (двухголосый)
Оригинальная аудиодорожка: нет
Субтитры: нет

Режиссер: Дэниэл Фильу / Daniel Filho

В ролях: Тони Рамос, Глория Пиреш, Carlos Bonow, Изабелль Драммонд, Ary Fontoura, Кассио Габус Мендес, Adriane Galisteu, Мария Глэдис, Мария Майя, Бернардо Мендез...

Описание: Клаудио и Хелена находятся на грани разрыва отношений, и пока этого не случилось, должно произойти нечто такое, что помогло бы им лучше понять друг друга...


Исходник: DVD5 R2 + звук с русского пиратского диска
Качество: DVDRip
Формат: AVI

Видео: 704x400 (16:9), 23.976 fps, XviD MPEG-4 ~1737 kbps avg, 0.257 bit/pixel
Аудио: 48 kHz, Dolby AC3, 6 ch, 384 kbps, русский

Раздача от:

Общее
Полное имя : Esly.by.ya.byl.toboi.2.2009.P2.DVDRip_[Youtracker]_by_avproh.avi
Формат : AVI
Формат/Информация : Audio Video Interleave
Размер файла : 1,46 Гбайт
Продолжительность : 1 ч. 37 м.
Общий поток : 2130 Кбит/сек
Программа кодирования : VirtualDubMod 1.5.10.3 | www.virtualdub-fr.org || (build 2550/release)
Библиотека кодирования : VirtualDubMod build 2550/release

Видео
Идентификатор : 0
Формат : MPEG-4 Visual
Профиль формата : Advanced Simple@L5
Параметр BVOP формата : 1
Параметр QPel формата : Нет
Параметр GMC формата : Без точки перехода
Параметр матрицы формата : Выборочная
Идентификатор кодека : XVID
Идентификатор кодека/Подсказка : XviD
Продолжительность : 1 ч. 37 м.
Битрейт : 1737 Кбит/сек
Ширина : 704 пикселя
Высота : 400 пикселей
Соотношение сторон : 16:9
Частота кадров : 23,976 кадра/сек
Цветовое пространство : YUV
Субдискретизация насыщенности : 4:2:0
Битовая глубина : 8 бит
Тип развёртки : Прогрессивная
Метод сжатия : С потерями
Бит/(Пиксели*Кадры) : 0.257
Размер потока : 1,19 Гбайт (82%)
Библиотека кодирования : XviD 65

Аудио
Идентификатор : 1
Формат : AC-3
Формат/Информация : Audio Coding 3
Расширение режима : CM (complete main)
Параметр Endianness формата : Big
Идентификатор кодека : 2000
Продолжительность : 1 ч. 37 м.
Вид битрейта : Постоянный
Битрейт : 384 Кбит/сек
Каналы : 6 каналов
Расположение каналов : Front: L C R, Side: L R, LFE
Частота : 48,0 КГц
Битовая глубина : 16 бит
Метод сжатия : С потерями
Размер потока : 269 Мбайт (18%)
Выравнивание : Разделение по промежуткам
Продолжительность промежутка : 42 мс. (1,00 видеокадр)
Время предзагрузки промежутка : 500 мс.



Скачать Если.бы.я.был.тобой.2.Se.Eu.Fosse.Voce.2.(Дэниэл.Фильу).[2009.комедия.DVDRip].[DVO].torrent без регистрации
Золото ЗОЛОТАЯ РАЗДАЧА! СКАЧАННОЕ НЕ ЗАСЧИТЫВАЕТСЯ! Золото
Дата: Зарегистрирован   [ Тип: внутренний ] Как тут cкачать?
MAGNET ссылка
MAGNET ссылка


Скачать .torrent

15 KB

Статус: проверено DHT
Скачан: торрент - 5528 раз, раздача полностью - 2 раз
Размер: 1,46 GB
Оценка:  - (Голосов: 0)
Поблагодарили: 0
Поделиться ссылкой на эту раздачу с друзьями:
В контактеFacebookОдноклассникиTwitterLivejournalМой МирLiveinternet
 

 
Показать сообщения:    


Вы не можете начинать темы
Вы не можете отвечать на сообщения
Вы не можете редактировать свои сообщения
Вы не можете удалять свои сообщения
Вы не можете голосовать в опросах
Вы не можете прикреплять файлы к сообщениям
Вы можете скачивать файлы