Loading...
Error

Скачать Если бы я был тобой 2 / Se Eu Fosse Voce 2 (Дэниэл Фильу) [2009, комедия, DVDRip] [DVO] торрент без регистрации

 
Статистика раздачи
Размер:  745 MB   |    Скачан:  192 раза

Полного источника не было: 23 минуты

 
Автор Сообщение

Marsianka

[] 

Год выпуска: 2009
Страна: Бразилия
Киностудии: Globo Filmes, Lereby Productions...

Жанр: комедия
Продолжительность: 01:37:48

Перевод: Профессиональный (двухголосый)
Оригинальная аудиодорожка: нет
Субтитры: нет

Режиссер: Дэниэл Фильу / Daniel Filho

В ролях: Тони Рамос, Глория Пиреш, Carlos Bonow, Изабелль Драммонд, Ary Fontoura, Кассио Габус Мендес, Adriane Galisteu, Мария Глэдис, Мария Майя, Бернардо Мендез...

Описание: Клаудио и Хелена находятся на грани разрыва отношений, и пока этого не случилось, должно произойти нечто такое, что помогло бы им лучше понять друг друга...


Исходник: DVD5 R2 + звук с русского пиратского диска
Качество: DVDRip
Формат: AVI

Видео: 656x368 (16:9), 23.976 fps, XviD MPEG-4 ~927 kbps avg, 0.160 bit/pixel
Аудио: 48 kHz, Dolby МР3, 2 ch, 128 kbps, русский

Раздача от:

Общее
Полное имя : Esly.by.ya.byl.toboi.2.2009.P2.DVDRip.745MB_[Youtracker]_by_avproh.avi
Формат : AVI
Формат/Информация : Audio Video Interleave
Размер файла : 745 Мбайт
Продолжительность : 1 ч. 37 м.
Общий поток : 1064 Кбит/сек
Программа кодирования : VirtualDubModRus 1.5.10.2 (build 2542/release)
Библиотека кодирования : VirtualDubMod build 2542/release

Видео
Идентификатор : 0
Формат : MPEG-4 Visual
Профиль формата : Advanced Simple@L5
Параметр BVOP формата : 1
Параметр QPel формата : Нет
Параметр GMC формата : Без точки перехода
Параметр матрицы формата : Выборочная
Идентификатор кодека : XVID
Идентификатор кодека/Подсказка : XviD
Продолжительность : 1 ч. 37 м.
Битрейт : 927 Кбит/сек
Ширина : 656 пикселей
Высота : 368 пикселей
Соотношение сторон : 16:9
Частота кадров : 23,976 кадра/сек
Цветовое пространство : YUV
Субдискретизация насыщенности : 4:2:0
Битовая глубина : 8 бит
Тип развёртки : Прогрессивная
Метод сжатия : С потерями
Бит/(Пиксели*Кадры) : 0.160
Размер потока : 649 Мбайт (87%)
Библиотека кодирования : XviD 65

Аудио
Идентификатор : 1
Формат : MPEG Audio
Версия формата : Version 1
Профиль формата : Layer 3
Режим : Joint stereo
Расширение режима : MS Stereo
Идентификатор кодека : 55
Идентификатор кодека/Подсказка : MP3
Продолжительность : 1 ч. 37 м.
Вид битрейта : Постоянный
Битрейт : 128 Кбит/сек
Каналы : 2 канала
Частота : 48,0 КГц
Метод сжатия : С потерями
Размер потока : 89,6 Мбайт (12%)
Выравнивание : Соединение по промежуткам
Продолжительность промежутка : 42 мс. (1,00 видеокадр)
Время предзагрузки промежутка : 504 мс.



Скачать Если.бы.я.был.тобой.2.Se.Eu.Fosse.Voce.2.(Дэниэл.Фильу).[2009.комедия.DVDRip].[DVO].torrent без регистрации
Золото ЗОЛОТАЯ РАЗДАЧА! СКАЧАННОЕ НЕ ЗАСЧИТЫВАЕТСЯ! Золото
Дата: Зарегистрирован   [ Тип: внутренний ] Как тут cкачать?
MAGNET ссылка
MAGNET ссылка


Скачать .torrent

15 KB

Статус: проверено DHT
Скачан: торрент - 192 раз, раздача полностью - 0 раз
Размер: 745 MB
Оценка:  - (Голосов: 0)
Поблагодарили: 2
Поделиться ссылкой на эту раздачу с друзьями:
В контактеFacebookОдноклассникиTwitterLivejournalМой МирLiveinternet
 

 
Показать сообщения:    


Вы не можете начинать темы
Вы не можете отвечать на сообщения
Вы не можете редактировать свои сообщения
Вы не можете удалять свои сообщения
Вы не можете голосовать в опросах
Вы не можете прикреплять файлы к сообщениям
Вы можете скачивать файлы