Loading...
Error

Скачать Майор Пэйн / Major Payne (Nick Castle / Ник Касл) [1995, Комедия, HDTVRip] [MVO] (СТС) + [AVO] (А.Гаврилов) торрент без регистрации

 
Статистика раздачи
Размер:  1,61 GB   |    Скачан:  5415 раз
Сидов:  1  [  0 KB/s  ]  
 
Автор Сообщение

leon030982

[] 

Майор Пэйн / Major Payne



Год выпуска: 1995
Страна: США
Жанр: Комедия
Продолжительность: 01:32:56
Перевод №1: Профессиональный (многоголосный, закадровый)[СТС]
Перевод №2: Авторский (одноголосный, закадровый)[А.Гаврилов]
Cубтитры: нет
Режиссер: Nick Castle / Ник Касл
В ролях: Дэймон Уайанс, Майкл Айронсайд, Кэрин Парсонс, Уильям Хикки, Альберт Холл, Стивен Мартини, Орландо Браун, Скотт Бигелоу
Описание: Дэймон Уайанс в роли майора, так и не дослужившегося до полковника, так как единственное, что он хорошо умел - это убивать. Его отправили в отставку, в полиции он не прижился, и бедняга подыхал от скуки в номере отеля. Но тут ему дали новое задание - тренировать мальчишек в военном училище. О том, как этот "зверюга" нашел общий язык с ребятишками и с молодой преподавательницей и рассказывается в этой комедии. Много смешных моментов и прекрасная игра Уэйэнса.(Иванов М.)

Качество видео: HDTVRip
Формат видео: AVI
Видео кодек: XviD
Аудио кодек: AC3
Видео: 720x400 (1.80:1), 25 fps, XviD build 64 ~2073 kbps avg, 0.29 bit/pixel
Аудио#1: 48 kHz, AC3 Dolby Digital, 2/0 (L,R) ch, ~192.00 kbps avg [СТС]
Аудио#2: 48 kHz, AC3 Dolby Digital, 2/0 (L,R) ch, ~192.00 kbps avg [А.Гаврилов]
E:\INTERNET\Major Payne.1995.HDTVRip.[MVO] (CTC)+[AVO] (Gavrilov).avi
General
Complete name : E:\INTERNET\Major Payne.1995.HDTVRip.[MVO] (CTC)+[AVO] (Gavrilov).avi
Format : AVI
Format/Info : Audio Video Interleave
File size : 1.61 GiB
Duration : 1h 32mn
Overall bit rate : 2 473 Kbps
Writing application : VirtualDubMod 1.5.10.3 (build 2550/release)
Writing library : VirtualDubMod build 2550/release
Video #0
ID : 0
Format : MPEG-4 Visual
Format profile : Advanced Simple@L5
Format settings, BVOP : 2
Format settings, QPel : No
Format settings, GMC : No warppoints
Format settings, Matrix : Custom
Codec ID : XVID
Codec ID/Hint : XviD
Duration : 1h 32mn
Bit rate : 2 074 Kbps
Width : 720 pixels
Height : 400 pixels
Display aspect ratio : 16:9
Frame rate : 25.000 fps
Color space : YUV
Chroma subsampling : 4:2:0
Bit depth : 8 bits
Scan type : Progressive
Compression mode : Lossy
Bits/(Pixel*Frame) : 0.288
Stream size : 1.35 GiB (84%)
Writing library : XviD 64
Audio #1
ID : 1
Format : AC-3
Format/Info : Audio Coding 3
Mode extension : CM (complete main)
Format settings, Endianness : Big
Codec ID : 2000
Duration : 1h 32mn
Bit rate mode : Constant
Bit rate : 192 Kbps
Channel(s) : 2 channels
Channel positions : Front: L R
Sampling rate : 48.0 KHz
Bit depth : 16 bits
Compression mode : Lossy
Stream size : 128 MiB (8%)
Alignment : Split accross interleaves
Interleave, duration : 40 ms (1.00 video frame)
Interleave, preload duration : 500 ms
Audio #2
ID : 2
Format : AC-3
Format/Info : Audio Coding 3
Mode extension : CM (complete main)
Format settings, Endianness : Big
Codec ID : 2000
Duration : 1h 32mn
Bit rate mode : Constant
Bit rate : 192 Kbps
Channel(s) : 2 channels
Channel positions : Front: L R
Sampling rate : 48.0 KHz
Bit depth : 16 bits
Compression mode : Lossy
Stream size : 128 MiB (8%)
Alignment : Split accross interleaves
Interleave, duration : 40 ms (1.00 video frame)
Interleave, preload duration : 500 ms



Скачать Майор.Пэйн.Major.Payne.(Nick.Castle.Ник.Касл).[1995.Комедия.HDTVRip].[MVO].(СТС).+.[AVO].(А.Гаврилов).torrent без регистрации
Золото ЗОЛОТАЯ РАЗДАЧА! СКАЧАННОЕ НЕ ЗАСЧИТЫВАЕТСЯ! Золото
Дата: Зарегистрирован   [ Тип: внутренний ] Как тут cкачать?
MAGNET ссылка
MAGNET ссылка


Скачать .torrent

17 KB

Статус: проверено DHT
Скачан: торрент - 5415 раз, раздача полностью - 39 раз
Размер: 1,61 GB
Оценка:  5 (Голосов: 1)
Поблагодарили: 5
Поделиться ссылкой на эту раздачу с друзьями:
В контактеFacebookОдноклассникиTwitterLivejournalМой МирLiveinternet
 

 

leon030982

[] 

ag ag ag
 
Показать сообщения:    


Вы не можете начинать темы
Вы не можете отвечать на сообщения
Вы не можете редактировать свои сообщения
Вы не можете удалять свои сообщения
Вы не можете голосовать в опросах
Вы не можете прикреплять файлы к сообщениям
Вы можете скачивать файлы