Loading...
Error

Скачать Победители и грешники / Qi mou miao ji: Wu fu xing (Саммо Хунг Кам-Бо / Sammo Hung Kam-Bo) [1983 г., боевик, комедия, криминал, BDRip] [MVO] (СТС) + 2x[DVO] торрент без регистрации

 
Статистика раздачи
Размер:  2,06 GB   |    Скачан:  109 раз
Сидов:  1  [  0 KB/s  ]  
 
Автор Сообщение

leon030982

[] 

Победители и грешники / Qi mou miao ji: Wu fu xing



Год выхода:1983
Жанр: боевик, комедия, криминал
Страна: Гонконг
Студия: Golden Harvest Company Ltd.
Продолжительность: 01:48:13
Перевод 1: Профессиональный (многоголосый, закадровый) [СТС / ДТВ / Студия "Селена Интернешнл"]
Перевод 2: Профессиональный (двухголосый, закадровый) [НТВ+ / Марина Тарасова, Александр Белый]
Перевод 3: Профессиональный (двухголосый, закадровый) [Рен Тв]
Режиссер: Саммо Хунг Кам-Бо
В ролях: Джеки Чан, Саммо Хунг Кам-Бо, Джон Шам, Ричард ЭнДжи,Чарли Чин, Чуи-Фан Фунг, Чери Чунг, Филип Чан, Джеймс Тьен, Пол Чанг
О фильме: Пять преступников со смешными прозвищами, выйдя из тюрьмы, решают начать честную жизнь и открывают фирму по уборке квартир. Одним из их клиентов оказывается подпольный фальшивомонетчик. В тот самый момент, когда шеф полиции собирался взять фальшивомонетчика с поличным, друзья занимались уборкой в его доме и случайно прихватили чемоданчик с деньгами

Автор релиза:
Качество: BDRip
Формат: AVI
Видео кодек: XviD
Аудио кодек: MP3
Видео: 720x400 (1.80:1), 23.976 fps, XviD build 50 ~2143 kbps avg, 0.31 bit/pixel
Аудио 1: 48 kHz, MP3, 2 ch, 192 kbps [СТС / ДТВ]
Аудио 2: 48 kHz, MP3, 2 ch, 192 kbps [НТВ+]
Аудио 3: 48 kHz, MP3, 2 ch, 192 kbps [Рен Тв]
E:\INTERNET\Победители и грешники (1983).avi
General
Complete name : E:\INTERNET\Победители и грешники (1983).avi
Format : AVI
Format/Info : Audio Video Interleave
Format profile : OpenDML
File size : 2.06 GiB
Duration : 1h 48mn
Overall bit rate : 2 726 Kbps
Director : Asianmaster
Writing application : VirtualDubMod 1.5.10.3 (build 2550/release)
Writing library : VirtualDubMod build 2550/release
Video #0
ID : 0
Format : MPEG-4 Visual
Format profile : Advanced Simple@L5
Format settings, BVOP : 2
Format settings, QPel : No
Format settings, GMC : No warppoints
Format settings, Matrix : Default (MPEG)
Codec ID : XVID
Codec ID/Hint : XviD
Duration : 1h 48mn
Bit rate : 2 126 Kbps
Width : 720 pixels
Height : 400 pixels
Display aspect ratio : 16:9
Frame rate : 23.976 fps
Color space : YUV
Chroma subsampling : 4:2:0
Bit depth : 8 bits
Scan type : Progressive
Compression mode : Lossy
Bits/(Pixel*Frame) : 0.308
Stream size : 1.61 GiB (78%)
Writing library : XviD 1.2.1 (UTC 2008-12-04)
Audio #1
ID : 1
Format : MPEG Audio
Format version : Version 1
Format profile : Layer 3
Mode : Joint stereo
Codec ID : 55
Codec ID/Hint : MP3
Duration : 1h 48mn
Bit rate mode : Constant
Bit rate : 192 Kbps
Channel(s) : 2 channels
Sampling rate : 48.0 KHz
Compression mode : Lossy
Stream size : 149 MiB (7%)
Alignment : Aligned on interleaves
Interleave, duration : 42 ms (1.00 video frame)
Interleave, preload duration : 504 ms
Audio #2
ID : 2
Format : MPEG Audio
Format version : Version 1
Format profile : Layer 3
Mode : Joint stereo
Codec ID : 55
Codec ID/Hint : MP3
Duration : 1h 48mn
Bit rate mode : Constant
Bit rate : 192 Kbps
Channel(s) : 2 channels
Sampling rate : 48.0 KHz
Compression mode : Lossy
Stream size : 149 MiB (7%)
Alignment : Aligned on interleaves
Interleave, duration : 42 ms (1.00 video frame)
Interleave, preload duration : 504 ms
Audio #3
ID : 3
Format : MPEG Audio
Format version : Version 1
Format profile : Layer 3
Mode : Joint stereo
Codec ID : 55
Codec ID/Hint : MP3
Duration : 1h 48mn
Bit rate mode : Constant
Bit rate : 192 Kbps
Channel(s) : 2 channels
Sampling rate : 48.0 KHz
Compression mode : Lossy
Stream size : 149 MiB (7%)
Alignment : Aligned on interleaves
Interleave, duration : 42 ms (1.00 video frame)
Interleave, preload duration : 504 ms



Скачать Победители.и.грешники.Qi.mou.miao.ji.Wu.fu.xing.(Саммо.Хунг.Кам-Бо.Sammo.Hung.Kam-Bo).[1983.г.боевик.комедия.криминал.BDRip].[MVO].(СТС).+.2x[DVO].torrent без регистрации
Золото ЗОЛОТАЯ РАЗДАЧА! СКАЧАННОЕ НЕ ЗАСЧИТЫВАЕТСЯ! Золото
Дата: Зарегистрирован   [ Тип: внутренний ] Как тут cкачать?
MAGNET ссылка
MAGNET ссылка


Скачать .torrent

21 KB

Статус: проверено DHT
Скачан: торрент - 109 раз, раздача полностью - 11 раз
Размер: 2,06 GB
Оценка:  5 (Голосов: 1)
Поблагодарили: 3
Поделиться ссылкой на эту раздачу с друзьями:
В контактеFacebookОдноклассникиTwitterLivejournalМой МирLiveinternet
 

 
Показать сообщения:    


Вы не можете начинать темы
Вы не можете отвечать на сообщения
Вы не можете редактировать свои сообщения
Вы не можете удалять свои сообщения
Вы не можете голосовать в опросах
Вы не можете прикреплять файлы к сообщениям
Вы можете скачивать файлы