Loading...
Error

Скачать Код / Кодекс вора / Thick as Thieves / The Code (Мими Ледер) [2008, триллер, криминал, BDRip-AVC] [MVO]+[Sub] торрент без регистрации

 
Статистика раздачи
Размер:  2,33 GB   |    Скачан:  135 раз
Сидов:  1  [  0 KB/s  ]  
 
Автор Сообщение

Marsianka

[] 

Информация о фильме
Название: Код / Кодекс вора
Оригинальное название: Thick as Thieves / The Code
Год выхода: 2008
Жанр: триллер, криминал
Режиссер: Мими Ледер
В ролях: Морган Фримен, Антонио Бандерас, Рада Митчелл, Роберт Форстер, Раде Шербеджия, Майкл Хейден, Марсель Юрес, Гари Вернтц, Велизaр Бинев, Энтони Бирн

О фильме:
Кит Рипли, опытный вор из Нью-Йорка, приглашает из Майами молодого, но уже проявившего себя «коллегу», Габриэля Мартина. Рипли нужен напарник для кражи двух старинных и очень ценных яиц Фаберже. Они вместе с другими драгоценностями российской династии Романовых хранятся в хорошо защищенном сейфе. Каждое яйцо на черном рынке стоит двадцать миллионов долларов. Украв раритет, Рипли планирует вернуть долг криминальному боссу Ники. Сумеет ли вор расплатиться по счетам, если в планы «преступной парочки» хочет вмешаться лейтенант полиции Вебер?



Страна: США, Германия
Студия: Millennium Films, Revelations Entertainment, Equity Pictures Medienfonds GmbH & Co. KG IV, Nu Image Entertainment GmbH, Emmett/Furla Films, Grosvenor Park Media
Продолжительность: 01:43:28
Перевод: Профессиональный (многоголосый закадровый)

Файл
Кодек: h.264
Качество: BDRip-AVC
Видео: 2455 Кбит/с, 1024x436, 23.976 кадр/с

Звук: Русский, английский (AC3, 6 ch, 384 Кбит/с)

Субтитры: Русские, английские

-------------------------------------------------------------------
x264 [info]: frame I:1617 Avg QP:16.88 size: 73373
x264 [info]: frame P:34620 Avg QP:19.58 size: 23832
x264 [info]: frame B:112617 Avg QP:20.98 size: 8514
-------------------------------------------------------------------

Полное имя : F:Thick.as.Thieves.2009.x264.BDRip.(AVC).0ptimus.mkv
Формат : Matroska
Версия формата : Version 4 / Version 2
Размер файла : 2,33 Гбайт
Продолжительность : 1 ч. 43 м.
Общий поток : 3222 Кбит/сек
Название фильма : Код (Кодекс вора) | The Code (Thick as Thieves) [2009] -=BDRip (AVC) by 0ptimus=-
Дата кодирования : UTC 2013-08-30 14:03:03
Программа кодирования : mkvmerge v6.1.0 ('Old Devil') built on Mar 2 2013 14:32:37
Библиотека кодирования : libebml v1.3.0 + libmatroska v1.4.0

Видео
Идентификатор : 1
Формат : AVC
Формат/Информация : Advanced Video Codec
Профиль формата : High@L4.1
Параметр CABAC формата : Да
Параметр ReFrames формата : 10 кадров
Идентификатор кодека : V_MPEG4/ISO/AVC
Продолжительность : 1 ч. 43 м.
Битрейт : 2455 Кбит/сек
Ширина : 1024 пикселя
Высота : 436 пикселей
Соотношение сторон : 2,35:1
Частота кадров : 23,976 кадра/сек
Цветовое пространство : YUV
Субдискретизация насыщенности : 4:2:0
Битовая глубина : 8 бит
Тип развёртки : Прогрессивная
Бит/(Пиксели*Кадры) : 0.229
Размер потока : 1,73 Гбайт (74%)
Заголовок : Rip by 0ptimus
Библиотека кодирования : x264 core 133 r2334 a3ac64b
Настройки программы : cabac=1 / ref=10 / deblock=1:-3:-3 / analyse=0x3:0x113 / me=umh / subme=11 / psy=1 / psy_rd=1.00:0.20 / mixed_ref=1 / me_range=48 / chroma_me=1 / trellis=2 / 8x8dct=1 / cqm=0 / deadzone=21,11 / fast_pskip=0 / chroma_qp_offset=-3 / threads=4 / lookahead_threads=1 / sliced_threads=0 / nr=0 / decimate=0 / interlaced=0 / bluray_compat=0 / constrained_intra=0 / bframes=8 / b_pyramid=2 / b_adapt=2 / b_bias=0 / direct=3 / weightb=1 / open_gop=0 / weightp=2 / keyint=240 / keyint_min=23 / scenecut=40 / intra_refresh=0 / rc_lookahead=40 / rc=2pass / mbtree=0 / bitrate=2455 / ratetol=1.0 / qcomp=0.60 / qpmin=0 / qpmax=69 / qpstep=4 / cplxblur=20.0 / qblur=0.5 / vbv_maxrate=50000 / vbv_bufsize=50000 / nal_hrd=none / ip_ratio=1.40 / pb_ratio=1.30 / aq=1:1.00
Язык : English

Аудио #1
Идентификатор : 2
Формат : AC-3
Формат/Информация : Audio Coding 3
Расширение режима : CM (complete main)
Идентификатор кодека : A_AC3
Продолжительность : 1 ч. 43 м.
Вид битрейта : Постоянный
Битрейт : 384 Кбит/сек
Каналы : 6 каналов
Расположение каналов : Front: L C R, Side: L R, LFE
Частота : 48,0 КГц
Битовая глубина : 16 бит
Метод сжатия : С потерями
Размер потока : 284 Мбайт (12%)
Заголовок : Многоголосый закадровый AC3 5.1 @ 384 kbps
Язык : Russian

Аудио #2
Идентификатор : 3
Формат : AC-3
Формат/Информация : Audio Coding 3
Расширение режима : CM (complete main)
Идентификатор кодека : A_AC3
Продолжительность : 1 ч. 43 м.
Вид битрейта : Постоянный
Битрейт : 384 Кбит/сек
Каналы : 6 каналов
Расположение каналов : Front: L C R, Side: L R, LFE
Частота : 48,0 КГц
Битовая глубина : 16 бит
Метод сжатия : С потерями
Размер потока : 284 Мбайт (12%)
Заголовок : AC3 5.1 @ 384 kbps
Язык : English

Текст #1
Идентификатор : 4
Формат : UTF-8
Идентификатор кодека : S_TEXT/UTF8
Идентификатор кодека/Информация : UTF-8 Plain Text
Язык : Russian

Текст #2
Идентификатор : 5
Формат : UTF-8
Идентификатор кодека : S_TEXT/UTF8
Идентификатор кодека/Информация : UTF-8 Plain Text
Язык : English

Меню
00:00:00.000 : en:Main Titles
00:09:32.238 : en:Stay Anonymous
00:17:49.694 : en:Call This Interest
00:23:42.588 : en:Taking Chances
00:31:04.571 : en:Cop for a Night
00:41:45.336 : en:Call Off Your Dogs
00:51:09.483 : en:Get In
00:55:35.666 : en:Twenty-Two Hundred
01:03:54.330 : en:Cracking the Safe
01:14:55.449 : en:Even Exchange
01:24:14.258 : en:Same Sources
01:32:51.065 : en:End Credits
Релиз от:



Скачать Код.Кодекс.вора.Thick.as.Thieves.The.Code.(Мими.Ледер).[2008.триллер.криминал.BDRip-AVC].[MVO]+[Sub].torrent без регистрации
Золото ЗОЛОТАЯ РАЗДАЧА! СКАЧАННОЕ НЕ ЗАСЧИТЫВАЕТСЯ! Золото
Дата: Зарегистрирован   [ Тип: внутренний ] Как тут cкачать?
MAGNET ссылка
MAGNET ссылка


Скачать .torrent

24 KB

Статус: проверено DHT
Скачан: торрент - 135 раз, раздача полностью - 75 раз
Размер: 2,33 GB
Оценка:  5 (Голосов: 2)
Поблагодарили: 7
Поделиться ссылкой на эту раздачу с друзьями:
В контактеFacebookОдноклассникиTwitterLivejournalМой МирLiveinternet
 

 
Показать сообщения:    


Вы не можете начинать темы
Вы не можете отвечать на сообщения
Вы не можете редактировать свои сообщения
Вы не можете удалять свои сообщения
Вы не можете голосовать в опросах
Вы не можете прикреплять файлы к сообщениям
Вы можете скачивать файлы