Loading...
Error

Скачать Билли Батгейт / Billy Bathgate (Роберт Бентон) [1991, боевик, драма, криминал, HDRip] [MVO]+[Dub]+[Оригинал]+[Sub] торрент без регистрации

 
Статистика раздачи
Размер:  2,19 GB   |    Скачан:  99 раз
Сидов:  1  [  0 KB/s  ]  
 
Автор Сообщение

Marsianka

[] 

Билли Батгейт / Billy Bathgate (1991) HDRip

Информация о фильме
Название: Билли Батгейт
Оригинальное название: Billy Bathgate
Год выхода: 1991
Жанр: боевик, драма, криминал
Режиссер: Роберт Бентон

В ролях: Дастин Хоффман, Николь Кидман, Лорен Дин, Брюс Уиллис, Стивен Хилл, Стив Бушеми, Билли Джэй, Джон Костелло, Тимоти Джером, Стэнли Туччи...

О фильме: В 1935 году Билли Батгэйт всего лишь обычный уличный мальчишка, один из многих. Проходит несколько лет, и он становится широко известен в криминальных кругах И это не удивительно, ведь Билли входит в банду знаменитого босса мафии Голландца Шульца.

Новая звезда преступного мира успешно продвигается в своей преступной карьере пока не встречает девушку своей мечты. Она красива и соблазнительна. Но у нее есть один существенный недостаток: она женщина Голландца.



Страна: США
Продолжительность: 01:46:36
Перевод: Профессиональный (многоголосый закадровый), Дублированный, Оригинал (Английский)

Файл
Кодек: XviD
Качество: HDRip
Видео: 720x384 (1.88:1), 23.976 fps, 2070 kbps, 0.312 bit/pixel
Аудио #1: 48 kHz, AC3 Dolby Digital, 3/2 (L,C,R,l,r) + LFE ch, ~448 kbps (Многоголосый)
Аудио #2: 48 kHz, AC3 Dolby Digital, 2/0 (L,R) ch, ~192 kbps (Дубляж)
Аудио #3: 48 kHz, AC3 Dolby Digital, 2/0 (L,R) ch, ~224 kbps (Оригинал)
Субтитры: Русские, Английские (внешние)
Сэмпл

&
Общее
Полное имя : D:TorrentBilly Bathgate.1991.HDRipBilly Bathgate.1991.HDRip.avi
Формат : AVI
Формат/Информация : Audio Video Interleave
Профиль формата : OpenDML
Настройки формата : rec
Размер файла : 2,19 Гбайт
Продолжительность : 1 ч. 46 м.
Общий поток : 2943 Кбит/сек
Программа кодирования : AVI-Mux GUI 1.17.8.3, Feb 16 201019:42:50

Видео
Идентификатор : 0
Формат : MPEG-4 Visual
Профиль формата : Advanced Simple@L5
Параметр BVOP формата : 1
Параметр QPel формата : Нет
Параметр GMC формата : Без точки перехода
Параметр матрицы формата : Выборочная
Идентификатор кодека : XVID
Идентификатор кодека/Подсказка : XviD
Продолжительность : 1 ч. 46 м.
Битрейт : 2070 Кбит/сек
Ширина : 720 пикселей
Высота : 384 пикселя
Соотношение сторон : 1,85:1
Частота кадров : 23,976 кадра/сек
Цветовое пространство : YUV
Субдискретизация насыщенности : 4:2:0
Битовая глубина : 8 бит
Тип развёртки : Прогрессивная
Метод сжатия : С потерями
Бит/(Пиксели*Кадры) : 0.312
Размер потока : 1,54 Гбайт (70%)
Библиотека кодирования : XviD 73

Аудио #1
Идентификатор : 1
Формат : AC-3
Формат/Информация : Audio Coding 3
Расширение режима : CM (complete main)
Параметр Endianness формата : Big
Идентификатор кодека : 2000
Продолжительность : 1 ч. 46 м.
Вид битрейта : Постоянный
Битрейт : 448 Кбит/сек
Каналы : 6 каналов
Расположение каналов : Front: L C R, Side: L R, LFE
Частота : 48,0 КГц
Битовая глубина : 16 бит
Метод сжатия : С потерями
Размер потока : 342 Мбайт (15%)
Выравнивание : Соединение по промежуткам
Продолжительность промежутка : 64 мс. (1,53 видеокадра)
Время предзагрузки промежутка : 192 мс.
Заголовок : Профессиональный (многоголосый закадровый)

Аудио #2
Идентификатор : 2
Формат : AC-3
Формат/Информация : Audio Coding 3
Расширение режима : CM (complete main)
Параметр Endianness формата : Big
Идентификатор кодека : 2000
Продолжительность : 1 ч. 46 м.
Вид битрейта : Постоянный
Битрейт : 192 Кбит/сек
Каналы : 2 канала
Расположение каналов : Front: L R
Частота : 48,0 КГц
Битовая глубина : 16 бит
Метод сжатия : С потерями
Размер потока : 146 Мбайт (7%)
Выравнивание : Соединение по промежуткам
Продолжительность промежутка : 64 мс. (1,53 видеокадра)
Время предзагрузки промежутка : 192 мс.
Заголовок : Дублированный

Аудио #3
Идентификатор : 3
Формат : AC-3
Формат/Информация : Audio Coding 3
Расширение режима : CM (complete main)
Параметр Endianness формата : Big
Идентификатор кодека : 2000
Продолжительность : 1 ч. 46 м.
Вид битрейта : Постоянный
Битрейт : 224 Кбит/сек
Каналы : 2 канала
Расположение каналов : Front: L R
Частота : 48,0 КГц
Битовая глубина : 16 бит
Метод сжатия : С потерями
Размер потока : 171 Мбайт (8%)
Выравнивание : Соединение по промежуткам
Продолжительность промежутка : 64 мс. (1,53 видеокадра)
Время предзагрузки промежутка : 192 мс.
Заголовок : Оригинал (Английский)



Скачать Билли.Батгейт.Billy.Bathgate.(Роберт.Бентон).[1991.боевик.драма.криминал.HDRip].[MVO]+[Dub]+[Оригинал]+[Sub].torrent без регистрации
Золото ЗОЛОТАЯ РАЗДАЧА! СКАЧАННОЕ НЕ ЗАСЧИТЫВАЕТСЯ! Золото
Дата: Зарегистрирован   [ Тип: внутренний ] Как тут cкачать?
MAGNET ссылка
MAGNET ссылка


Скачать .torrent

12 KB

Статус: проверено DHT
Скачан: торрент - 99 раз, раздача полностью - 6 раз
Размер: 2,19 GB
Оценка:  - (Голосов: 0)
Поблагодарили: 0
Поделиться ссылкой на эту раздачу с друзьями:
В контактеFacebookОдноклассникиTwitterLivejournalМой МирLiveinternet
 

 
Показать сообщения:    


Вы не можете начинать темы
Вы не можете отвечать на сообщения
Вы не можете редактировать свои сообщения
Вы не можете удалять свои сообщения
Вы не можете голосовать в опросах
Вы не можете прикреплять файлы к сообщениям
Вы можете скачивать файлы