Loading...
Error

Скачать Затащи меня в Ад / Drag Me to Hell (Сэм Рэйми) [2009, ужасы, триллер, BDRip-AVC] [Dub]+[Sub] торрент без регистрации

 
Статистика раздачи
Размер:  1,74 GB   |    Скачан:  124 раза
Сидов:  1  [  0 KB/s  ]  
 
Автор Сообщение

Marsianka

[] 

Информация о фильме
Название: Затащи меня в Ад
Оригинальное название: Drag Me to Hell
Год выхода: 2009
Жанр: ужасы, триллер
Режиссер: Сэм Рэйми
В ролях: Джастин Лонг, Челси Росс, Дэвид Пэймер, Алексей Мясников, Нина Тобилевич, Илья Хвостиков, Наталья Фищук, Василий Дахненко, Элисон Ломан, Лорна Рэвер, Дилип Рао, Адриана Барраза, Регги Ли, Молли Чик, Бояна Новакович

О фильме:
Кристина Браун живет в Лос-Анжелесе, работает в банке, оформляя клиентам ссуды, у нее обаятельный и любящий бойфренд, профессор Клэй Далтон. Все складывается хорошо и, казалось, что жизнь удалась, но только до тех пор, пока в банке не появляется некая миссис Гануш с просьбой об отсрочке ипотечного кредита. Кристина и рада бы пойти навстречу старой женщине, но перед ней маячит возможность занять более высокую должность в банке, и она отказывает старухе. В ответ, та накладывает на нее проклятие, и жизнь девушки превращается в непрерывный кошмар. Теперь помочь Кристине может только провидица Шаун Сэн Дена.



Страна: США
Студия: Universal Pictures, Ghost House Pictures, Buckaroo Entertainment, Curse Productions, Mandate Pictures
Продолжительность: 01:38:57
Перевод: Дублированный

Файл
Кодек: h.264
Качество: BDRip-AVC
Видео: 1742 Кбит/с, 1024х428, 23.976 кадр/с

Аудио: Русский, английский (AC3, 6 ch, 384 Кбит/с)

Субтитры: Русские, украинские, английские

Полное имя : Drag.Me.to.Hell.(Unrated).2009.x264.BDRip.(AVC).0ptimus.mkv
Формат : Matroska
Версия формата : Version 4 / Version 2
Размер файла : 1,74 Гбайт
Продолжительность : 1 ч. 38 м.
Общий поток : 2512 Кбит/сек
Название фильма : Затащи меня в Ад | Drag Me to Hell [2009] -=BDRip (AVC) by 0ptimus=-
Дата кодирования : UTC 2013-08-31 10:17:45
Программа кодирования : mkvmerge v6.1.0 ('Old Devil') built on Mar 2 2013 14:32:37
Библиотека кодирования : libebml v1.3.0 + libmatroska v1.4.0

Видео
Идентификатор : 1
Формат : AVC
Формат/Информация : Advanced Video Codec
Профиль формата : High@L4.1
Параметр CABAC формата : Да
Параметр ReFrames формата : 8 кадров
Идентификатор кодека : V_MPEG4/ISO/AVC
Продолжительность : 1 ч. 38 м.
Битрейт : 1742 Кбит/сек
Ширина : 1024 пикселя
Высота : 428 пикселей
Соотношение сторон : 2,40:1
Частота кадров : 23,976 кадра/сек
Цветовое пространство : YUV
Субдискретизация насыщенности : 4:2:0
Битовая глубина : 8 бит
Тип развёртки : Прогрессивная
Бит/(Пиксели*Кадры) : 0.166
Размер потока : 1,17 Гбайт (67%)
Заголовок : Rip by 0ptimus
Библиотека кодирования : x264 core 133 r2334 a3ac64b
Настройки программы : cabac=1 / ref=8 / deblock=1:-3:-3 / analyse=0x3:0x113 / me=umh / subme=11 / psy=1 / psy_rd=1.00:0.20 / mixed_ref=1 / me_range=48 / chroma_me=1 / trellis=2 / 8x8dct=1 / cqm=0 / deadzone=21,11 / fast_pskip=0 / chroma_qp_offset=-3 / threads=4 / lookahead_threads=1 / sliced_threads=0 / nr=0 / decimate=0 / interlaced=0 / bluray_compat=0 / constrained_intra=0 / bframes=7 / b_pyramid=2 / b_adapt=2 / b_bias=0 / direct=3 / weightb=1 / open_gop=0 / weightp=2 / keyint=240 / keyint_min=23 / scenecut=40 / intra_refresh=0 / rc_lookahead=40 / rc=2pass / mbtree=0 / bitrate=1742 / ratetol=1.0 / qcomp=0.60 / qpmin=0 / qpmax=69 / qpstep=4 / cplxblur=20.0 / qblur=0.5 / vbv_maxrate=50000 / vbv_bufsize=50000 / nal_hrd=none / ip_ratio=1.40 / pb_ratio=1.30 / aq=1:1.00
Язык : English

Аудио #1
Идентификатор : 2
Формат : AC-3
Формат/Информация : Audio Coding 3
Расширение режима : CM (complete main)
Идентификатор кодека : A_AC3
Продолжительность : 1 ч. 38 м.
Вид битрейта : Постоянный
Битрейт : 384 Кбит/сек
Каналы : 6 каналов
Расположение каналов : Front: L C R, Side: L R, LFE
Частота : 48,0 КГц
Битовая глубина : 16 бит
Метод сжатия : С потерями
Размер потока : 272 Мбайт (15%)
Заголовок : Дублированный [Позитив-Мультимедиа] AC3 5.1 @ 384 kbps
Язык : Russian

Аудио #2
Идентификатор : 3
Формат : AC-3
Формат/Информация : Audio Coding 3
Расширение режима : CM (complete main)
Идентификатор кодека : A_AC3
Продолжительность : 1 ч. 38 м.
Вид битрейта : Постоянный
Битрейт : 384 Кбит/сек
Каналы : 6 каналов
Расположение каналов : Front: L C R, Side: L R, LFE
Частота : 48,0 КГц
Битовая глубина : 16 бит
Метод сжатия : С потерями
Размер потока : 272 Мбайт (15%)
Заголовок : AC3 5.1 @ 384 kbps
Язык : English

Текст #1
Идентификатор : 4
Формат : UTF-8
Идентификатор кодека : S_TEXT/UTF8
Идентификатор кодека/Информация : UTF-8 Plain Text
Язык : Russian

Текст #2
Идентификатор : 5
Формат : UTF-8
Идентификатор кодека : S_TEXT/UTF8
Идентификатор кодека/Информация : UTF-8 Plain Text
Язык : Ukrainian

Текст #3
Идентификатор : 6
Формат : UTF-8
Идентификатор кодека : S_TEXT/UTF8
Идентификатор кодека/Информация : UTF-8 Plain Text
Язык : English

Меню
00:00:00.000 : :Chapter 01
00:05:28.453 : :Chapter 02
00:10:43.726 : :Chapter 03
00:16:38.038 : :Chapter 04
00:22:34.102 : :Chapter 05
00:29:36.941 : :Chapter 06
00:35:46.894 : :Chapter 07
00:40:37.393 : :Chapter 08
00:45:49.913 : :Chapter 09
00:51:32.923 : :Chapter 10
00:59:11.089 : :Chapter 11
01:07:01.642 : :Chapter 12
01:13:09.885 : :Chapter 13
01:19:52.662 : :Chapter 14
01:25:13.066 : :Chapter 15
01:34:07.850 : :Chapter 16
01:38:56.847 : :Chapter 17

---------------------------------------------------------------------------
x264 [info]: frame I:1358 Avg QP:17.30 size: 59820
x264 [info]: frame P:30921 Avg QP:20.37 size: 19189
x264 [info]: frame B:110065 Avg QP:21.75 size: 5617
---------------------------------------------------------------------------
Релиз от:



Скачать Затащи.меня.в.Ад.Drag.Me.to.Hell.(Сэм.Рэйми).[2009.ужасы.триллер.BDRip-AVC].[Dub]+[Sub].torrent без регистрации
Золото ЗОЛОТАЯ РАЗДАЧА! СКАЧАННОЕ НЕ ЗАСЧИТЫВАЕТСЯ! Золото
Дата: Зарегистрирован   [ Тип: внутренний ] Как тут cкачать?
MAGNET ссылка
MAGNET ссылка


Скачать .torrent

18 KB

Статус: проверено DHT
Скачан: торрент - 124 раз, раздача полностью - 85 раз
Размер: 1,74 GB
Оценка:  - (Голосов: 0)
Поблагодарили: 1
Поделиться ссылкой на эту раздачу с друзьями:
В контактеFacebookОдноклассникиTwitterLivejournalМой МирLiveinternet
 

 
Показать сообщения:    


Вы не можете начинать темы
Вы не можете отвечать на сообщения
Вы не можете редактировать свои сообщения
Вы не можете удалять свои сообщения
Вы не можете голосовать в опросах
Вы не можете прикреплять файлы к сообщениям
Вы можете скачивать файлы