Loading...
Error

Скачать Горечь и сладость / Dalkomhan insaeng / A Bittersweet Life (Ким Чжи Ун) [2005, боевик, драма, криминал, BDRip-AVC] [MVO]+[Sub] торрент без регистрации

 
Статистика раздачи
Размер:  1,45 GB   |    Скачан:  125 раз
Сидов:  1  [  0 KB/s  ]  
 
Автор Сообщение

Marsianka

[] 

Горечь и сладость / Dalkomhan insaeng / A Bittersweet Life (2005) BDRip-AVC

Информация о фильме
Название: Горечь и сладость
Оригинальное название: Dalkomhan insaeng / A Bittersweet Life
Год выхода: 2005
Жанр: боевик, драма, криминал
Режиссер: Ким Чжи Ун

В ролях: Ли Бён Хон, Чжон-мин Хван, Ю-Ми Жонг, Ку Джин, Рой-ха Ким, Ён-чхоль Ким, Ги-ён Ли, Му-ён Ли, Эрик Мун...

О фильме: Сон У хладнокровный перфекционист, управляющий дорогим рестораном. Он настолько мастерски справляется с работой, что заслужил безграничное доверие босса своей банды, мистера Кана.

У мистера Кана есть проблема похоже, его юная подружка Хи Су встречается с кем-то на стороне, довериться в этом деликатном деле Кан может лишь Сон У, приказывая ему убить девчонку, если подозрения окажутся правдой. Через несколько дней слежки Сон У застает ее с любовником, но к своему собственному удивлению нарушает приказ и отпускает голубков; эта роковая слабость ввергает банду в необратимую войну.



Страна: Корея Южная
Продолжительность: 01:59:21
Перевод: Профессиональный (многоголосый закадровый)

Файл
Кодек: x.264
Качество: BDRip-AVC
Видео: 960x400 (2,40:1), 23,976 fps, 1519 kbps, 0.165 bit/pixel
Звук: 48 kHz, AC3 Dolby Digital, 2 ch, ~224.00 kbps
Субтитры: Русские, Английские (отключаемые)
Сэмпл

&
Общее
Уникальный идентификатор : 246876742968069301258081461663303244984 (0xB9BABB2EF90FEEA5BE14F29019E89CB8)
Полное имя : D:Dalkomhan insaeng.2005.BDRip-AVC.mkv
Формат : Matroska
Версия формата : Version 4 / Version 2
Размер файла : 1,45 Гбайт
Продолжительность : 1 ч. 59 м.
Общий поток : 1745 Кбит/сек
Название фильма : Горечь и сладость / A Bittersweet Life / Dalkomhan insaeng (2005) BDRip-AVC rip by Rulya74
Дата кодирования : UTC 2013-08-31 06:17:50
Программа кодирования : mkvmerge v6.2.0 ('Promised Land') built on Apr 28 2013 12:22:01
Библиотека кодирования : libebml v1.3.0 + libmatroska v1.4.0

Видео
Идентификатор : 1
Формат : AVC
Формат/Информация : Advanced Video Codec
Профиль формата : High@L4.1
Параметр CABAC формата : Да
Параметр ReFrames формата : 7 кадров
Идентификатор кодека : V_MPEG4/ISO/AVC
Продолжительность : 1 ч. 59 м.
Битрейт : 1519 Кбит/сек
Ширина : 960 пикселей
Высота : 400 пикселей
Соотношение сторон : 2,40:1
Режим частоты кадров : Постоянный
Частота кадров : 23,976 кадра/сек
Цветовое пространство : YUV
Субдискретизация насыщенности : 4:2:0
Битовая глубина : 8 бит
Тип развёртки : Прогрессивная
Бит/(Пиксели*Кадры) : 0.165
Размер потока : 1,24 Гбайт (85%)
Библиотека кодирования : x264 core 130 r2273 b3065e6
Настройки программы : cabac=1 / ref=7 / deblock=1:-3:-3 / analyse=0x3:0x133 / me=umh / subme=9 / psy=1 / psy_rd=1.06:0.10 / mixed_ref=1 / me_range=32 / chroma_me=1 / trellis=2 / 8x8dct=1 / cqm=0 / deadzone=21,11 / fast_pskip=0 / chroma_qp_offset=-3 / threads=3 / lookahead_threads=1 / sliced_threads=0 / nr=0 / decimate=1 / interlaced=0 / bluray_compat=0 / constrained_intra=0 / bframes=9 / b_pyramid=2 / b_adapt=2 / b_bias=0 / direct=3 / weightb=1 / open_gop=0 / weightp=2 / keyint=250 / keyint_min=25 / scenecut=40 / intra_refresh=0 / rc_lookahead=50 / rc=2pass / mbtree=1 / bitrate=1519 / ratetol=1.0 / qcomp=0.60 / qpmin=10 / qpmax=69 / qpstep=4 / cplxblur=20.0 / qblur=0.5 / ip_ratio=1.40 / aq=1:1.00
Default : Да
Forced : Нет

Аудио
Идентификатор : 2
Формат : AC-3
Формат/Информация : Audio Coding 3
Расширение режима : CM (complete main)
Параметр Endianness формата : Big
Идентификатор кодека : A_AC3
Продолжительность : 1 ч. 59 м.
Вид битрейта : Постоянный
Битрейт : 224 Кбит/сек
Каналы : 2 канала
Расположение каналов : Front: L R
Частота : 48,0 КГц
Битовая глубина : 16 бит
Метод сжатия : С потерями
Размер потока : 191 Мбайт (13%)
Заголовок : Профессиональный (многоголосый закадровый)
Язык : Russian
Default : Да
Forced : Нет

Текст #1
Идентификатор : 3
Формат : UTF-8
Идентификатор кодека : S_TEXT/UTF8
Идентификатор кодека/Информация : UTF-8 Plain Text
Язык : Russian
Default : Нет
Forced : Нет

Текст #2
Идентификатор : 4
Формат : UTF-8
Идентификатор кодека : S_TEXT/UTF8
Идентификатор кодека/Информация : UTF-8 Plain Text
Язык : English
Default : Нет
Forced : Нет

Меню
00:00:00.000 : :Chapter 01
00:05:42.383 : :Chapter 02
00:15:44.944 : :Chapter 03
00:24:13.910 : :Chapter 04
00:30:48.054 : :Chapter 05
00:39:35.372 : :Chapter 06
00:44:30.667 : :Chapter 07
00:47:30.430 : :Chapter 08
00:52:26.184 : :Chapter 09
00:59:52.422 : :Chapter 10
01:05:02.565 : :Chapter 11
01:09:19.655 : :Chapter 12
01:15:24.770 : :Chapter 13
01:26:26.055 : :Chapter 14
01:32:15.655 : :Chapter 15
01:39:27.419 : :Chapter 16
01:45:03.922 : :Chapter 17
01:50:52.479 : :Chapter 18



Скачать Горечь.и.сладость.Dalkomhan.insaeng.A.Bittersweet.Life.(Ким.Чжи.Ун).[2005.боевик.драма.криминал.BDRip-AVC].[MVO]+[Sub].torrent без регистрации
Золото ЗОЛОТАЯ РАЗДАЧА! СКАЧАННОЕ НЕ ЗАСЧИТЫВАЕТСЯ! Золото
Дата: Зарегистрирован   [ Тип: внутренний ] Как тут cкачать?
MAGNET ссылка
MAGNET ссылка


Скачать .torrent

15 KB

Статус: проверено DHT
Скачан: торрент - 125 раз, раздача полностью - 22 раз
Размер: 1,45 GB
Оценка:  5 (Голосов: 1)
Поблагодарили: 4
Поделиться ссылкой на эту раздачу с друзьями:
В контактеFacebookОдноклассникиTwitterLivejournalМой МирLiveinternet
 

 
Показать сообщения:    


Вы не можете начинать темы
Вы не можете отвечать на сообщения
Вы не можете редактировать свои сообщения
Вы не можете удалять свои сообщения
Вы не можете голосовать в опросах
Вы не можете прикреплять файлы к сообщениям
Вы можете скачивать файлы