Loading...
Error

Скачать Закусочная на колесах / Wheels on Meals / Kuai can che (Саммо Хунг Кам-Бо) [1984, боевик, комедия, BDRip] [AVO] (Леонид Володарский) + [MVO] (т/к Россия) торрент без регистрации

 
Статистика раздачи
Размер:  1,61 GB   |    Скачан:  148 раз
Сидов:  1  [  0 KB/s  ]  
 
Автор Сообщение

leon030982

[] 

Закусочная на колесах / Wheels on Meals / Kuai can che




Год выхода: 1984
Жанр: боевик, комедия
Выпущено: Гонконг, Испания
Продолжительность: 01:48:32
Перевод#1: Авторский (одноголосный)[Леонид Володарский]
Перевод#2: Профессиональный (многоголосый закадровый)[т/к Россия]

Режиссер: Саммо Хунг Кам-Бо

В ролях: Джеки Чан, Саммо Хунг Кам-Бо, Юэнь Бяо, Лола Форнер, Бенни Уркидез, Кит Витали, Херб Эдельман, Сюзанна Сэнтис, Мерседес Альберт

О фильме: Два энергичных китайца организовали в Барселоне передвижную харчевню. Их желтый фургончик дарит людям вкусную еду и очаровательный китайско испанский сервис. Но однажды всю их выручку похищает хитрая Синьорита Сильвия.
Масса самых забавных ситуаций, сумасшедшие гонки на автокухне, виртуозные сцены рукопашных поединков и, как всегда, полный задора и отточенности в движениях Джеки Чан!



Качество: BDRip [Исх. BlueBird / Blu-Ray Disk / 1080p]
Формат: AVI
Видео кодек: XviD
Аудио кодек: AC3
Видео: 704x384 (1.83:1), 23.976 fps, XviD build 62 ~2103 kbps avg, 0.32 bit/pixel
Аудио #1: 48 kHz, AC3 Dolby Digital, 2/0 (L,R) ch, 192.00 kbps avg [Леонид Володарский]
Аудио #2: 48 kHz, AC3 Dolby Digital, 2/0 (L,R) ch, 192.00 kbps avg [т/к Россия]
E:\INTERNET\Закусочная на колесах.1984.BDRip.[AVO Volodarskiy]+[MVO Rossiya].avi
General
Complete name : E:\INTERNET\Закусочная на колесах.1984.BDRip.[AVO Volodarskiy]+[MVO Rossiya].avi
Format : AVI
Format/Info : Audio Video Interleave
File size : 1.61 GiB
Duration : 1h 48mn
Overall bit rate : 2 117 Kbps
Writing application : VirtualDubMod 1.5.10.3 (build 2550/release)
Writing library : VirtualDubMod build 2550/release
Video #0
ID : 0
Format : MPEG-4 Visual
Format profile : Advanced Simple@L5
Format settings, BVOP : 1
Format settings, QPel : No
Format settings, GMC : No warppoints
Format settings, Matrix : Custom
Codec ID : XVID
Codec ID/Hint : XviD
Duration : 1h 48mn
Bit rate : 1 720 Kbps
Width : 704 pixels
Height : 384 pixels
Display aspect ratio : 1.85:1
Frame rate : 23.976 fps
Color space : YUV
Chroma subsampling : 4:2:0
Bit depth : 8 bits
Scan type : Progressive
Compression mode : Lossy
Bits/(Pixel*Frame) : 0.265
Stream size : 1.30 GiB (81%)
Writing library : XviD 1.2.1 (UTC 2008-12-04)
Audio #1
ID : 1
Format : AC-3
Format/Info : Audio Coding 3
Mode extension : CM (complete main)
Format settings, Endianness : Big
Codec ID : 2000
Duration : 1h 48mn
Bit rate mode : Constant
Bit rate : 192 Kbps
Channel(s) : 2 channels
Channel positions : Front: L R
Sampling rate : 48.0 KHz
Bit depth : 16 bits
Compression mode : Lossy
Stream size : 149 MiB (9%)
Alignment : Split accross interleaves
Interleave, duration : 42 ms (1.00 video frame)
Interleave, preload duration : 500 ms
Audio #2
ID : 2
Format : AC-3
Format/Info : Audio Coding 3
Mode extension : CM (complete main)
Format settings, Endianness : Big
Codec ID : 2000
Duration : 1h 48mn
Bit rate mode : Constant
Bit rate : 192 Kbps
Channel(s) : 2 channels
Channel positions : Front: L R
Sampling rate : 48.0 KHz
Bit depth : 16 bits
Compression mode : Lossy
Stream size : 149 MiB (9%)
Alignment : Split accross interleaves
Interleave, duration : 42 ms (1.00 video frame)
Interleave, preload duration : 500 ms




Скачать Закусочная.на.колесах.Wheels.on.Meals.Kuai.can.che.(Саммо.Хунг.Кам-Бо).[1984.боевик.комедия.BDRip].[AVO].(Леонид.Володарский).+.[MVO].(т.к.Россия).torrent без регистрации
Золото ЗОЛОТАЯ РАЗДАЧА! СКАЧАННОЕ НЕ ЗАСЧИТЫВАЕТСЯ! Золото
Дата: Зарегистрирован   [ Тип: внутренний ] Как тут cкачать?
MAGNET ссылка
MAGNET ссылка


Скачать .torrent

17 KB

Статус: проверено DHT
Скачан: торрент - 148 раз, раздача полностью - 187 раз
Размер: 1,61 GB
Оценка:  5 (Голосов: 2)
Поблагодарили: 4
Поделиться ссылкой на эту раздачу с друзьями:
В контактеFacebookОдноклассникиTwitterLivejournalМой МирLiveinternet
 

 
Показать сообщения:    


Вы не можете начинать темы
Вы не можете отвечать на сообщения
Вы не можете редактировать свои сообщения
Вы не можете удалять свои сообщения
Вы не можете голосовать в опросах
Вы не можете прикреплять файлы к сообщениям
Вы можете скачивать файлы