Loading...
Error

Скачать Пьяный Рассвет / Tequila Sunrise (Роберт Таун / Robert Towne) [1988, боевик, криминал, мелодрама, DVDRip] [MVO] (НТВ) + 2x[AVO] (Гаврилов, Иванов) торрент без регистрации

 
Статистика раздачи
Размер:  1,61 GB   |    Скачан:  114 раз
Сидов:  1  [  0 KB/s  ]  
 
Автор Сообщение

leon030982

[] 

Пьяный Рассвет / Tequila Sunrise


Год выпуска: 1988
Страна: США
Жанр: боевик, криминал, мелодрама
Продолжительность: 01:50:31
Перевод: Профессиональный (многоголосый закадровый) [НТВ+ по заказу НТВ]
Перевод 2: Авторский (одноголосый закадровый) [Андрей Гаврилов]
Перевод 3: Авторский (одноголосый закадровый) [Михаил Иванов]
Cубтитры: нет

Режиссер: Роберт Таун / Robert Towne

В ролях: Мэл Гибсон, Мишель Пфайффер, Курт Рассел, Рауль Хулиа, Дж.Т. Уолш, Гэбриел Дэймон, Арлисс Ховард, Ари Гросс, Дэниэл Зацапа, Эрик Тиле

Описание: Мак МакКьюссик, возможно, оставил наркобизнес. Однако сам наркобизнес никак не хочет оставить его в покое: им интересуются и полицейские, и наркодельцы.



Качество видео: DVDRip
Формат видео: AVI
Видео кодек: XviD
Аудио кодек: AC3
Видео: XviD, 704x384 (1,85:1), 23.976 fps, 1495 kbps avg
Аудио: AC3, 48.0 khz, 2 ch, 192 kbps (ТВ3 SATRip)
Аудио 2: AC3, 48.0 khz, 2 ch, 192 kbps (Гаврилов VHSRip)
Аудио 3: AC3, 48.0 khz, 2 ch, 192 kbps (Иванов VHSRip) [отдельно]
Выражаю благодарность за помощь в создании релиза:
vik19662007 - видео из раздачи на пиратке, синхронизация Гаврилова и Иванова
mixaiil77 - запись с телеканала ТВ3 и предоставление НТВ
dunhill200 - оцифровка с VHS и предоставление Гаврилова
edsz - оцифровка с VHS и предоставление Иванова
akchurin.a2011 - синхронизация ТВ3
Текст Читали:
ТВ3 - Дмитрий Полонский, Александр Груздев, Александр Комлев и Жанна Никонова.
Все переводы на трекере появляются впервые.
Общее
Полное имя : E:\Альберт\Downloads\Пьяный Рассвет\Пьяный Рассвет.avi
Формат : AVI
Формат/Информация : Audio Video Interleave
Размер файла : 1,46 Гбайт
Продолжительность : 1 ч. 50 м.
Общий поток : 1893 Кбит/сек
Название фильма : Tequila Sunrise
Режиссёр : vik19662007
Программа кодирования : VirtualDubMod 1.5.10.3 (build 2550/release)
Библиотека кодирования : VirtualDubMod build 2550/release
Формат оригинала/Имя : Movie
Видео
Идентификатор : 0
Формат : MPEG-4 Visual
Профиль формата : Advanced Simple@L5
Параметр BVOP формата : 1
Параметр QPel формата : Нет
Параметр GMC формата : Без точки перехода
Параметр матрицы формата : Default (H.263)
Идентификатор кодека : XVID
Идентификатор кодека/Подсказка : XviD
Продолжительность : 1 ч. 50 м.
Битрейт : 1495 Кбит/сек
Ширина : 704 пикселя
Высота : 384 пикселя
Соотношение сторон : 1,85:1
Частота кадров : 25,000 кадров/сек
Цветовое пространство : YUV
Субдискретизация насыщенности : 4:2:0
Битовая глубина : 8 бит
Тип развёртки : Прогрессивная
Метод сжатия : С потерями
Бит/(Пиксели*Кадры) : 0.221
Размер потока : 1,15 Гбайт (79%)
Библиотека кодирования : XviD 1.2.1 (UTC 2008-12-04)
Аудио #1
Идентификатор : 1
Формат : AC-3
Формат/Информация : Audio Coding 3
Расширение режима : CM (complete main)
Параметр Endianness формата : Big
Идентификатор кодека : 2000
Продолжительность : 1 ч. 50 м.
Вид битрейта : Постоянный
Битрейт : 192 Кбит/сек
Каналы : 2 канала
Расположение каналов : Front: L R
Частота : 48,0 КГц
Битовая глубина : 16 бит
Метод сжатия : С потерями
Размер потока : 152 Мбайт (10%)
Выравнивание : Разделение по промежуткам
Продолжительность промежутка : 40 мс. (1,00 видеокадр)
Время предзагрузки промежутка : 500 мс.
Аудио #2
Идентификатор : 2
Формат : AC-3
Формат/Информация : Audio Coding 3
Расширение режима : CM (complete main)
Параметр Endianness формата : Big
Идентификатор кодека : 2000
Продолжительность : 1 ч. 50 м.
Вид битрейта : Постоянный
Битрейт : 192 Кбит/сек
Каналы : 2 канала
Расположение каналов : Front: L R
Частота : 48,0 КГц
Битовая глубина : 16 бит
Метод сжатия : С потерями
Размер потока : 152 Мбайт (10%)
Выравнивание : Разделение по промежуткам
Продолжительность промежутка : 40 мс. (1,00 видеокадр)
Время предзагрузки промежутка : 500 мс.



Скачать Пьяный.Рассвет.Tequila.Sunrise.(Роберт.Таун.Robert.Towne).[1988.боевик.криминал.мелодрама.DVDRip].[MVO].(НТВ).+.2x[AVO].(Гаврилов.Иванов).torrent без регистрации
Золото ЗОЛОТАЯ РАЗДАЧА! СКАЧАННОЕ НЕ ЗАСЧИТЫВАЕТСЯ! Золото
Дата: Зарегистрирован   [ Тип: внутренний ] Как тут cкачать?
MAGNET ссылка
MAGNET ссылка


Скачать .torrent

17 KB

Статус: проверено DHT
Скачан: торрент - 114 раз, раздача полностью - 50 раз
Размер: 1,61 GB
Оценка:  4,7 (Голосов: 3)
Поблагодарили: 3
Поделиться ссылкой на эту раздачу с друзьями:
В контактеFacebookОдноклассникиTwitterLivejournalМой МирLiveinternet
 

 
Показать сообщения:    


Вы не можете начинать темы
Вы не можете отвечать на сообщения
Вы не можете редактировать свои сообщения
Вы не можете удалять свои сообщения
Вы не можете голосовать в опросах
Вы не можете прикреплять файлы к сообщениям
Вы можете скачивать файлы