Loading...
Error

Скачать Приветствие Джаггера / The Blood of Heroes (Дэвид Уэбб Пиплз / David Webb Peoples) [1989, фантастика, постапокалипсис, DVDRip-AVC] [Full Version] [VO] (Есарев) + [MVO] торрент без регистрации

 
Статистика раздачи
Размер:  1,46 GB   |    Скачан:  121 раз
Сидов:  1  [  0 KB/s  ]  
 
Автор Сообщение

leon030982

[] 

Приветствие Джаггера / The Salute Of The Jugger [Полная версия / Full Version]



Год выпуска: 1989
Страна: США, Австралия
Жанр: фантастика, постапокалипсис
Продолжительность: 01:39:32
Перевод 1: Одноголосный (закадровый) [Дмитрий Есарев]
Перевод 2: Профессиональный (многоголосый закадровый)
Cубтитры: нет
Оригинальная аудиодорожка: английский

Режиссер: Дэвид Уэбб Пиплз / David Webb Peoples

В ролях: Рутгер Хауэр, Джоан Чен, Винсент Д'Онофрио, Анна Катарина, Делрой Линдо и др.

Описание: Действие фильма разворачивается в следующем столетии после опустошительной войны. Единственным развлечением выживших после ядерной катастрофы людей стали жестокие соревнования - нечто среднее между рыцарскими турнирами и боями гладиаторов. Команда беспощадного Рутгера Хауэра рвется в высшую лигу, где выигрыш на самом деле является вопросом жизни и смерти.



Качество видео: DVDRip-AVC [исходник [DVD-5]
Формат видео: MKV
Видео: 720x544 (4:3), 1523 kbps avg, 25 fps, 0.156 bit/pixel
Аудио 1: 48 kHz, AC3, 2/0 (L,R) ch, 192 kbps [Есарев]
Аудио 2: 48 kHz, AC3, 2/0 (L,R) ch, 192 kbps [MVO]
Аудио 3: 48 kHz, AC3, 2/0 (L,R) ch, 192 kbps [Eng]

Перевод Дмитрия Есарева доступен благодаря mihey10, рип и работа со звуком - mihaildns.
Общее
Уникальный идентификатор : 183233382159296993030940546024217012894 (0x89D9773B78624CAAAFD01FDE1CB46A9E)
Формат : Matroska
Версия формата : Version 2
Размер файла : 1,46 Гбайт
Продолжительность : 1 ч. 39 м.
Общий поток : 2101 Кбит/сек
Дата кодирования : UTC 2013-08-26 13:44:34
Программа кодирования : mkvmerge v3.0.0 ('Hang up your Hang-Ups') built on Dec 12 2009 15:20:35
Библиотека кодирования : libebml v0.7.9 + libmatroska v0.8.1

Видео
Идентификатор : 1
Формат : AVC
Формат/Информация : Advanced Video Codec
Профиль формата : High@L4.1
Параметр CABAC формата : Да
Параметр ReFrames формата : 12 кадров
Идентификатор кодека : V_MPEG4/ISO/AVC
Продолжительность : 1 ч. 39 м.
Битрейт : 1523 Кбит/сек
Ширина : 720 пикселей
Высота : 544 пикселя
Соотношение сторон : 4:3
Режим частоты кадров : Постоянный
Частота кадров : 25,000 кадров/сек
Цветовое пространство : YUV
Субдискретизация насыщенности : 4:2:0
Битовая глубина : 8 бит
Тип развёртки : Прогрессивная
Бит/(Пиксели*Кадры) : 0.156
Размер потока : 1,03 Гбайт (71%)
Библиотека кодирования : x264 core 124 r2197 69a0443
Настройки программы : cabac=1 / ref=12 / deblock=1:-3:-3 / analyse=0x3:0x111 / me=umh / subme=9 / psy=1 / psy_rd=1.00:0.00 / mixed_ref=1 / me_range=24 / chroma_me=1 / trellis=2 / 8x8dct=1 / cqm=0 / deadzone=21,11 / fast_pskip=0 / chroma_qp_offset=-2 / threads=6 / sliced_threads=0 / nr=0 / decimate=1 / interlaced=0 / bluray_compat=0 / constrained_intra=0 / bframes=9 / b_pyramid=2 / b_adapt=2 / b_bias=0 / direct=3 / weightb=1 / open_gop=0 / weightp=2 / keyint=250 / keyint_min=25 / scenecut=40 / intra_refresh=0 / rc_lookahead=50 / rc=2pass / mbtree=1 / bitrate=1523 / ratetol=1.0 / qcomp=0.60 / qpmin=0 / qpmax=69 / qpstep=4 / cplxblur=20.0 / qblur=0.5 / ip_ratio=1.40 / aq=1:1.10
Default : Нет
Forced : Нет

Аудио #1
Идентификатор : 2
Формат : AC-3
Формат/Информация : Audio Coding 3
Расширение режима : CM (complete main)
Параметр Endianness формата : Big
Идентификатор кодека : A_AC3
Продолжительность : 1 ч. 39 м.
Вид битрейта : Постоянный
Битрейт : 192 Кбит/сек
Каналы : 2 канала
Расположение каналов : Front: L R
Частота : 48,0 КГц
Битовая глубина : 16 бит
Метод сжатия : С потерями
Размер потока : 137 Мбайт (9%)
Заголовок : AVO Есарев
Язык : Russian
Default : Да
Forced : Нет

Аудио #2
Идентификатор : 3
Формат : AC-3
Формат/Информация : Audio Coding 3
Расширение режима : CM (complete main)
Параметр Endianness формата : Big
Идентификатор кодека : A_AC3
Продолжительность : 1 ч. 39 м.
Вид битрейта : Постоянный
Битрейт : 192 Кбит/сек
Каналы : 2 канала
Расположение каналов : Front: L R
Частота : 48,0 КГц
Битовая глубина : 16 бит
Метод сжатия : С потерями
Размер потока : 137 Мбайт (9%)
Заголовок : MVO
Язык : Russian
Default : Нет
Forced : Нет

Аудио #3
Идентификатор : 4
Формат : AC-3
Формат/Информация : Audio Coding 3
Расширение режима : CM (complete main)
Параметр Endianness формата : Big
Идентификатор кодека : A_AC3
Продолжительность : 1 ч. 39 м.
Вид битрейта : Постоянный
Битрейт : 192 Кбит/сек
Каналы : 2 канала
Расположение каналов : Front: L R
Частота : 48,0 КГц
Битовая глубина : 16 бит
Метод сжатия : С потерями
Размер потока : 137 Мбайт (9%)
Заголовок : Оригинал
Язык : English
Default : Нет
Forced : Нет



Скачать Приветствие.Джаггера.The.Blood.of.Heroes.(Дэвид.Уэбб.Пиплз.David.Webb.Peoples).[1989.фантастика.постапокалипсис.DVDRip-AVC].[Full.Version].[VO].(Есарев).+.[MVO].torrent без регистрации
Золото ЗОЛОТАЯ РАЗДАЧА! СКАЧАННОЕ НЕ ЗАСЧИТЫВАЕТСЯ! Золото
Дата: Зарегистрирован   [ Тип: внутренний ] Как тут cкачать?
MAGNET ссылка
MAGNET ссылка


Скачать .torrent

15 KB

Статус: проверено DHT
Скачан: торрент - 121 раз, раздача полностью - 18 раз
Размер: 1,46 GB
Оценка:  5 (Голосов: 3)
Поблагодарили: 5
Поделиться ссылкой на эту раздачу с друзьями:
В контактеFacebookОдноклассникиTwitterLivejournalМой МирLiveinternet
 

 
Показать сообщения:    


Вы не можете начинать темы
Вы не можете отвечать на сообщения
Вы не можете редактировать свои сообщения
Вы не можете удалять свои сообщения
Вы не можете голосовать в опросах
Вы не можете прикреплять файлы к сообщениям
Вы можете скачивать файлы