Loading...
Error

Скачать Воровка / Burglar (Хью Уилсон / Hugh Wilson) [1987, Комедия, криминал, DVDRip] [MVO] (Варус-Видео) торрент без регистрации

 
Статистика раздачи
Размер:  1,39 GB   |    Скачан:  129 раз
Сидов:  1  [  0 KB/s  ]  
 
Автор Сообщение

leon030982

[] 

Воровка / Burglar


Год выпуска: 1987
Страна: США, Канада
Жанр: Комедия, криминал
Продолжительность: 01:42:94
Перевод: Профессиональный (многоголосый закадровый) [Варус-Видео]
Роли озвучивали: Ольга Кузнецова, Марина Тарасова, Александр Новиков
Cубтитры: нет
Оригинальная аудиодорожка: нет

Режиссер: Хью Уилсон / Hugh Wilson

В ролях: Вупи Голдберг, Боб Гоулдтуэйт, Дж. У. Бэйли, Лесли Энн Уоррен, Джеймс Хэнди, Анна Де Сальво, Элизабет Рушио, Вито Ругинис, Ларри Минтц, Рэй Берк, Эрик Поппик, Скотт Линкольн, Том Брэй, Натан Дэвис, Лия Сарджент, Стивен Шеллен, Фреди Олстер, Рик Хэмилтон, Дэннис Ричмонд, Билл Джеллифф, Майк Пневски, Гаррисон Хершбергер, Бренда Хэйес, Джон Х. Филдс, Бретт Маркс, Дэвид Партингтон, Джек О'Лири, Маргарет Ленси, Этан Филлипс

Описание: Комедия основана на серии книг мастера криминальной литературы Лоуренса Блока. Девизом этой детективной комедии является кредо главной героини: "Неважно, что крадешь, важно, у кого крадешь". Профессиональная квартирная воровка Бернис проникает в чужой дом понятно с какими целями. Тут-то и возвращаются хозяева. Ей пришлось залезть в стенной шкаф и притаиться. Страдавшая клаустрофобией, Бернис с трудом дождалась затишья и вышла наружу. Что же она увидела? Убитого хозяина. Чтобы подозрения не пали на неё, Бернис сама начинает расследовать убийство с помощью своего чудаковатого друга...



Качество видео: DVDRip
Формат видео: AVI
Видео кодек: XviD
Аудио кодек: AC3
Видео: XviD build 50, 640x464 (1.38:1), 23.976 fps, 1754 kbps avg
Аудио: AC3 Dolby Digital, 48 kHz, 2/0 (L,R) ch, 192.00 kbps avg
Спасибо Fikaloid за оцифровку звука. Работа со звуком спасибо alex7691
General
Complete name : F:\Vorovka\Burglar_1987.DVDRip.MVO.avi
Format : AVI
Format/Info : Audio Video Interleave
File size : 1.39 GiB
Duration : 1h 42mn
Overall bit rate : 1 956 Kbps
Writing application : VirtualDubModRus 1.5.10.2 (build 2542/release)
Writing library : VirtualDubMod build 2542/release
Video
ID : 0
Format : MPEG-4 Visual
Format profile : Advanced Simple@L5
Format settings, BVOP : 1
Format settings, QPel : No
Format settings, GMC : No warppoints
Format settings, Matrix : Default (MPEG)
Codec ID : XVID
Codec ID/Hint : XviD
Duration : 1h 42mn
Bit rate : 1 754 Kbps
Width : 640 pixels
Height : 464 pixels
Display aspect ratio : 1.379
Frame rate : 23.976 fps
Color space : YUV
Chroma subsampling : 4:2:0
Bit depth : 8 bits
Scan type : Progressive
Compression mode : Lossy
Bits/(Pixel*Frame) : 0.246
Stream size : 1.25 GiB (90%)
Writing library : XviD 1.2.0.dev47 (UTC 2006-11-01)
Audio
ID : 1
Format : AC-3
Format/Info : Audio Coding 3
Mode extension : CM (complete main)
Format settings, Endianness : Big
Codec ID : 2000
Duration : 1h 42mn
Bit rate mode : Constant
Bit rate : 192 Kbps
Channel(s) : 2 channels
Channel positions : Front: L R
Sampling rate : 48.0 KHz
Bit depth : 16 bits
Compression mode : Lossy
Delay relative to video : 32ms
Stream size : 140 MiB (10%)
Alignment : Split accross interleaves
Interleave, duration : 42 ms (1.00 video frame)
Interleave, preload duration : 500 ms



Скачать Воровка.Burglar.(Хью.Уилсон.Hugh.Wilson).[1987.Комедия.криминал.DVDRip].[MVO].(Варус-Видео).torrent без регистрации
Золото ЗОЛОТАЯ РАЗДАЧА! СКАЧАННОЕ НЕ ЗАСЧИТЫВАЕТСЯ! Золото
Дата: Зарегистрирован   [ Тип: внутренний ] Как тут cкачать?
MAGNET ссылка
MAGNET ссылка


Скачать .torrent

14 KB

Статус: проверено DHT
Скачан: торрент - 129 раз, раздача полностью - 8 раз
Размер: 1,39 GB
Оценка:  - (Голосов: 0)
Поблагодарили: 2
Поделиться ссылкой на эту раздачу с друзьями:
В контактеFacebookОдноклассникиTwitterLivejournalМой МирLiveinternet
 

 
Показать сообщения:    


Вы не можете начинать темы
Вы не можете отвечать на сообщения
Вы не можете редактировать свои сообщения
Вы не можете удалять свои сообщения
Вы не можете голосовать в опросах
Вы не можете прикреплять файлы к сообщениям
Вы можете скачивать файлы