Loading...
Error

Скачать Моя жена и дети / My Wife and Kids (Полный 1-ый сезон) (Damon Wayans) [2001 г., комедия, WEB-DLRip] [MVO] торрент без регистрации

Статистика раздачи
Размер:  2,96 GB   |    Скачан:  146 раз
Сидов:  1  [  0 KB/s  ]  
 
 
 
Автор Сообщение

leon030982

[] 

Моя жена и дети / My Wife and Kids (Полный 1-ый сезон)


Год выпуска: 2001
Страна: США
Жанр: комедия
Продолжительность: ~00:20
Перевод: Профессиональный (многоголосый, закадровый) (Fox Life)
Режиссер: Damon Wayans

В ролях: Damon Wayans (Michael Kyle), Jazz Raycole (Claire Kyle), George O. Gore II (Michael Kyle Jr.), Tisha Campbell (Janet Marie "Jay" Kyle), Parker McKenna Posey (Kady Kyle)

Описание: МАЙКЛ КАЙЛ – сторонник патриархата, поэтому у него в доме царит особенный стиль управления. Он учит детей жизни с характерным только ему юмором и мудростью. Жене Майкла, ДЖАНЕТ, удается успевать везде – и заниматься домом, и строить карьеру, и обмениваться остротами с мужем. У них есть трое детей: ДЖУНИОР, которому частенько достается от остроумного и строгого папочки; дочка-подросток КЛЭР, у которой постоянно меняется настроение и вечно не хватает денег, и маленькая КЭДИ, которая редко позволяет папе сказать последнее слово.



Качество: WEB-DLRip
Формат: AVI
Видео кодек: XviD
Аудио кодек: AC3
Видео: XviD; 720x400; 23.976 fps; ~1380 kbps; 0.200 bit/pixel
Аудио:
1 - AC3; 48000Hz; 2 ch; 192 kbps [двухголосый закадровый] FOX Life
2 - AC3; 48000Hz; 2 ch; 192 kbps [оригинал]
General
Complete name : D:\Сериалы\My Wife and Kids - Season 1 (WEB-DLRip, Xvid, Rus-Eng)\01 - Pilot.avi
Format : AVI
Format/Info : Audio Video Interleave
File size : 275 MiB
Duration : 21mn 36s
Overall bit rate : 1 780 Kbps
Writing application : VirtualDubMod 1.5.10.2 (build 2540/release)
Writing library : VirtualDubMod build 2540/release

Video
ID : 0
Format : MPEG-4 Visual
Format profile : Advanced Simple@L5
Format settings, BVOP : Yes
Format settings, QPel : No
Format settings, GMC : No warppoints
Format settings, Matrix : Default (MPEG)
Codec ID : XVID
Codec ID/Hint : XviD
Duration : 21mn 36s
Bit rate : 1 382 Kbps
Width : 720 pixels
Height : 400 pixels
Display aspect ratio : 16:9
Frame rate : 23.976 fps
Color space : YUV
Chroma subsampling : 4:2:0
Bit depth : 8 bits
Scan type : Progressive
Compression mode : Lossy
Bits/(Pixel*Frame) : 0.200
Stream size : 214 MiB (78%)
Writing library : XviD 64

Audio #1
ID : 1
Format : AC-3
Format/Info : Audio Coding 3
Mode extension : CM (complete main)
Format settings, Endianness : Big
Codec ID : 2000
Duration : 21mn 36s
Bit rate mode : Constant
Bit rate : 192 Kbps
Channel count : 2 channels
Channel positions : Front: L R
Sampling rate : 48.0 KHz
Bit depth : 16 bits
Compression mode : Lossy
Stream size : 29.7 MiB (11%)
Alignment : Split accross interleaves
Interleave, duration : 42 ms (1.00 video frame)
Interleave, preload duration : 500 ms

Audio #2
ID : 2
Format : AC-3
Format/Info : Audio Coding 3
Mode extension : CM (complete main)
Format settings, Endianness : Big
Codec ID : 2000
Duration : 21mn 36s
Bit rate mode : Constant
Bit rate : 192 Kbps
Channel count : 2 channels
Channel positions : Front: L R
Sampling rate : 48.0 KHz
Bit depth : 16 bits
Compression mode : Lossy
Stream size : 29.7 MiB (11%)
Alignment : Split accross interleaves
Interleave, duration : 42 ms (1.00 video frame)
Interleave, preload duration : 500 ms

15.12.13 Обновлено на лучшее качество!Заменен видео ряд на WEB-DLRip



Скачать Моя.жена.и.дети.My.Wife.and.Kids.(Полный.1-ый.сезон).(Damon.Wayans).[2001.г.комедия.WEB-DLRip].[MVO].torrent без регистрации
Золото ЗОЛОТАЯ РАЗДАЧА! СКАЧАННОЕ НЕ ЗАСЧИТЫВАЕТСЯ! Золото
Дата: Зарегистрирован   [ Тип: внутренний ] Как тут cкачать?
MAGNET ссылка
MAGNET ссылка


Скачать .torrent

5 KB

Статус: проверено DHT
Скачан: торрент - 146 раз, раздача полностью - 115 раз
Размер: 2,96 GB
Оценка:  5 (Голосов: 1)
Поблагодарили: 2
Поделиться ссылкой на эту раздачу с друзьями:
В контактеFacebookОдноклассникиTwitterLivejournalМой МирLiveinternet
 

 

leon030982

[] 

отличный комедийный сериал для всей семьи ab ag без пошлятины и тупых шуток
 

leon030982

[] 

Код:

15.12.13 Обновлено на лучшее качество!Заменен видео ряд на WEB-DLRip
 
Показать сообщения:    


Вы не можете начинать темы
Вы не можете отвечать на сообщения
Вы не можете редактировать свои сообщения
Вы не можете удалять свои сообщения
Вы не можете голосовать в опросах
Вы не можете прикреплять файлы к сообщениям
Вы можете скачивать файлы