Loading...
Error

Скачать Моя жена и дети / My Wife and Kids (Полный 3-ий сезон) (Damon Wayans) [2002-2003 г., комедия, SATRip] [MVO] торрент без регистрации

 
Статистика раздачи
Размер:  4,35 GB   |    Скачан:  125 раз
Сидов:  1  [  0 KB/s  ]  
 
Автор Сообщение

leon030982

[] 

Моя жена и дети / My Wife and Kids (Полный 3-ий сезон)


Год выпуска: 2002-2003
Страна: США
Жанр: комедия
Продолжительность: ~00:20
Перевод: Профессиональный (многоголосый, закадровый) (Fox Life)
Режиссер: Damon Wayans

В ролях: Damon Wayans (Michael Kyle), Jazz Raycole (Claire Kyle), George O. Gore II (Michael Kyle Jr.), Tisha Campbell (Janet Marie "Jay" Kyle), Parker McKenna Posey (Kady Kyle)

Описание: МАЙКЛ КАЙЛ – сторонник патриархата, поэтому у него в доме царит особенный стиль управления. Он учит детей жизни с характерным только ему юмором и мудростью. Жене Майкла, ДЖАНЕТ, удается успевать везде – и заниматься домом, и строить карьеру, и обмениваться остротами с мужем. У них есть трое детей: ДЖУНИОР, которому частенько достается от остроумного и строгого папочки; дочка-подросток КЛЭР, у которой постоянно меняется настроение и вечно не хватает денег, и маленькая КЭДИ, которая редко позволяет папе сказать последнее слово.



Качество: SATRip
Формат: AVI
Видео кодек: DivX
Аудио кодек: MP3
Видео: 624x352 (1.77:1), 25 fps, DivX Codec 6.8.3 ~1008 kbps avg, 0.18 bit/pixel
Аудио: 48 kHz, MPEG Layer 3, 2 ch, ~128.00 kbps avg
E:\INTERNET\My Wife and Kids 3\my_wife_and_kids.s03e02.rus.satrip.novafilm.tv.avi
General
Complete name : E:\INTERNET\My Wife and Kids 3\my_wife_and_kids.s03e02.rus.satrip.novafilm.tv.avi
Format : AVI
Format/Info : Audio Video Interleave
File size : 165 MiB
Duration : 20mn 43s
Overall bit rate : 1 113 Kbps
Writing application : VirtualDubMod 1.5.10.2 (build 2542/release)
Writing library : VirtualDubMod build 2542/release
Video #0
ID : 0
Format : MPEG-4 Visual
Format settings, BVOP : 1
Format settings, QPel : No
Format settings, GMC : No warppoints
Format settings, Matrix : Default (H.263)
Muxing mode : Packed bitstream
Codec ID : DX50
Codec ID/Hint : DivX 5
Duration : 20mn 43s
Bit rate : 976 Kbps
Width : 624 pixels
Height : 352 pixels
Display aspect ratio : 16:9
Frame rate : 25.000 fps
Color space : YUV
Chroma subsampling : 4:2:0
Bit depth : 8 bits
Scan type : Progressive
Compression mode : Lossy
Bits/(Pixel*Frame) : 0.178
Stream size : 145 MiB (88%)
Writing library : DivX 6.8.3-6.8.4 (UTC 2008-06-07)
Audio #1
ID : 1
Format : MPEG Audio
Format version : Version 1
Format profile : Layer 3
Mode : Joint stereo
Mode extension : MS Stereo
Codec ID : 55
Codec ID/Hint : MP3
Duration : 20mn 43s
Bit rate mode : Constant
Bit rate : 128 Kbps
Channel(s) : 2 channels
Sampling rate : 48.0 KHz
Compression mode : Lossy
Stream size : 19.0 MiB (11%)
Alignment : Aligned on interleaves
Interleave, duration : 40 ms (1.00 video frame)
Interleave, preload duration : 504 ms



Скачать Моя.жена.и.дети.My.Wife.and.Kids.(Полный.3-ий.сезон).(Damon.Wayans).[2002-2003.г.комедия.SATRip].[MVO].torrent без регистрации
Золото ЗОЛОТАЯ РАЗДАЧА! СКАЧАННОЕ НЕ ЗАСЧИТЫВАЕТСЯ! Золото
Дата: Зарегистрирован   [ Тип: внутренний ] Как тут cкачать?
MAGNET ссылка
MAGNET ссылка


Скачать .torrent

24 KB

Статус: проверено DHT
Скачан: торрент - 125 раз, раздача полностью - 86 раз
Размер: 4,35 GB
Оценка:  5 (Голосов: 1)
Поблагодарили: 2
Поделиться ссылкой на эту раздачу с друзьями:
В контактеFacebookОдноклассникиTwitterLivejournalМой МирLiveinternet
 

 
Показать сообщения:    


Вы не можете начинать темы
Вы не можете отвечать на сообщения
Вы не можете редактировать свои сообщения
Вы не можете удалять свои сообщения
Вы не можете голосовать в опросах
Вы не можете прикреплять файлы к сообщениям
Вы можете скачивать файлы