Loading...
Error

Скачать Внутренняя империя / Inland Empire (Дэвид Линч) [2006, фэнтези, триллер, драма, детектив, BDRip-AVC] [MVO]+[Оригинал]+[Sub] торрент без регистрации

 
Статистика раздачи
Размер:  2,76 GB   |    Скачан:  130 раз

Полного источника не было: 30 минут

 
Автор Сообщение

Marsianka

[] 

Внутренняя империя / Inland Empire (2006) BDRip-AVC

Информация о фильме
Название: Внутренняя империя
Оригинальное название: Inland Empire
Год выхода: 2006
Жанр: фэнтези, триллер, драма, детектив
Режиссер: Дэвид Линч / David Lynch

В ролях: Лора Дерн, Джастин Теру, Джереми Айронс, Джулия Ормонд, Каролина Грушка, Йен Эберкромби, Карен Бейрд, Беллина Логан, Аманда Формен, Питер Дж. Лукас...

О фильме: Актеры Никки Грейс и Девон Берк приступают к съемкам нового фильма «On High in Blue Tomorrows». По мере погружения в роль, жизнь Никки резко меняется: она перестает понимать, где кончается реальность и начинается кино. Неожиданно Никки узнает, что она не первая исполнительница роли. Несколько лет назад съемки прервались, после того как главных актеров нашли убитыми. Но еще больше Никки беспокоит то, что ее героиня становится более реальной, чем она сама


Страна: Франция, Польша, США
Продолжительность: 02:59:43
Перевод: Профессиональный (многоголосый закадровый), Оригинал (Английский)

Файл
Кодек: x.264
Качество: BDRip-AVC
Видео: 960x528 (16:9), 23,976 fps, 1617 kbps, 0.133 bit/pixel
Аудио #1: 48 kHz, AC3 Dolby Digital, 6 ch, ~384.00 kbps (Русский)
Аудио #2: 48 kHz, AC3 Dolby Digital, 2 ch, ~192.00 kbps (Английский)
Субтитры: Русские, Английские (отключаемые)

&

Фильм снимался на протяжении двух лет в обстановке строгой секретности в Польше (город Лодзь) с местными актёрами, а затем съёмочная группа переехала в Лос-Анджелес, где доснимала оставшиеся сцены.

«Внутренняя империя» целиком снята на цифровую камеру. По окончании съёмок Дэвид Линч сказал, что впредь всегда будет работать только с цифровой видеокамерой.

В фильме появляются три человека, одетых в большие кроличьи костюмы: два из них сидят на диване, третий гладит бельё. Кроликов озвучивают Наоми Уоттс, Лора Хэрринг и Скотт Коффи. Все трое актёров уже играли у Линча в фильме «Малхолланд Драйв», а кроме того, Скотт Коффи снял для Уоттс экспериментальный фильм «Элли Паркер».

Песню «Ghost of love» в фильме исполняет сам Линч.

Во время монтажа картины Дэвид разошелся со своей супругой Мэри Суини.

Часть материала в фильме показана в черно-белом цвете.

Название фильма возникло совершенно случайно. Однажды в разговоре с режиссером Дэвидом Линчем актриса Лора Дерн упомянула, что ее муж родом из Внутренней Империи так называется область к востоку от округа Лос-Анджелес, включая Риверсайд и округ Сан-Бернадино. Впоследствии Линч признавался, что после этого он перестал слушать то, что говорила Лора, потому что был совершенно зачарован звучанием слов «Внутренняя Империя». В конце концов Дэвид Линч решил назвать так свой новый фильм. Когда режиссера спрашивали, почему он выбрал такое название, он отвечал: «Потому что мне нравится слово «внутренний». И мне нравится слово «империя».
Общее
Уникальный идентификатор : 174185349616106228106256096182593692195 (0x830AE0C930BE08A1AA16ED22C7BCA223)
Полное имя : D:TorrentInland Empire.2006.BDRip-AVC.mkv
Формат : Matroska
Версия формата : Version 4 / Version 2
Размер файла : 2,76 Гбайт
Продолжительность : 2 ч. 59 м.
Общий поток : 2195 Кбит/сек
Название фильма : Внутренняя империя / Inland Empire (2006) BDRip-AVC rip by Rulya74
Дата кодирования : UTC 2013-09-03 09:47:33
Программа кодирования : mkvmerge v6.2.0 ('Promised Land') built on Apr 28 2013 12:22:01
Библиотека кодирования : libebml v1.3.0 + libmatroska v1.4.0

Видео
Идентификатор : 1
Формат : AVC
Формат/Информация : Advanced Video Codec
Профиль формата : High@L4.1
Параметр CABAC формата : Да
Параметр ReFrames формата : 10 кадров
Идентификатор кодека : V_MPEG4/ISO/AVC
Продолжительность : 2 ч. 59 м.
Битрейт : 1617 Кбит/сек
Ширина : 960 пикселей
Высота : 528 пикселей
Соотношение сторон : 16:9
Режим частоты кадров : Постоянный
Частота кадров : 23,976 кадра/сек
Цветовое пространство : YUV
Субдискретизация насыщенности : 4:2:0
Битовая глубина : 8 бит
Тип развёртки : Прогрессивная
Бит/(Пиксели*Кадры) : 0.133
Размер потока : 1,98 Гбайт (72%)
Библиотека кодирования : x264 core 133 r2334 a3ac64b
Настройки программы : cabac=1 / ref=10 / deblock=1:-1:-1 / analyse=0x3:0x113 / me=umh / subme=9 / psy=1 / psy_rd=1.12:0.22 / mixed_ref=1 / me_range=32 / chroma_me=1 / trellis=2 / 8x8dct=1 / cqm=0 / deadzone=21,11 / fast_pskip=0 / chroma_qp_offset=-3 / threads=4 / lookahead_threads=1 / sliced_threads=0 / nr=0 / decimate=1 / interlaced=0 / bluray_compat=0 / constrained_intra=0 / bframes=8 / b_pyramid=2 / b_adapt=2 / b_bias=0 / direct=3 / weightb=1 / open_gop=0 / weightp=2 / keyint=240 / keyint_min=23 / scenecut=40 / intra_refresh=0 / rc_lookahead=40 / rc=2pass / mbtree=1 / bitrate=1617 / ratetol=1.0 / qcomp=0.60 / qpmin=10 / qpmax=69 / qpstep=4 / cplxblur=20.0 / qblur=0.5 / vbv_maxrate=62500 / vbv_bufsize=78125 / nal_hrd=none / ip_ratio=1.40 / aq=1:1.00
Default : Да
Forced : Нет

Аудио #1
Идентификатор : 2
Формат : AC-3
Формат/Информация : Audio Coding 3
Расширение режима : CM (complete main)
Параметр Endianness формата : Big
Идентификатор кодека : A_AC3
Продолжительность : 2 ч. 59 м.
Вид битрейта : Постоянный
Битрейт : 384 Кбит/сек
Каналы : 6 каналов
Расположение каналов : Front: L C R, Side: L R, LFE
Частота : 48,0 КГц
Битовая глубина : 16 бит
Метод сжатия : С потерями
Размер потока : 494 Мбайт (17%)
Заголовок : Многоголосый закадровый (Киномания)
Язык : Russian
Default : Да
Forced : Нет

Аудио #2
Идентификатор : 3
Формат : AC-3
Формат/Информация : Audio Coding 3
Расширение режима : CM (complete main)
Параметр Endianness формата : Big
Идентификатор кодека : A_AC3
Продолжительность : 2 ч. 59 м.
Вид битрейта : Постоянный
Битрейт : 192 Кбит/сек
Каналы : 2 канала
Расположение каналов : Front: L R
Частота : 48,0 КГц
Битовая глубина : 16 бит
Метод сжатия : С потерями
Размер потока : 247 Мбайт (9%)
Заголовок : Оригинал
Язык : English
Default : Нет
Forced : Нет

Текст #1
Идентификатор : 4
Формат : UTF-8
Идентификатор кодека : S_TEXT/UTF8
Идентификатор кодека/Информация : UTF-8 Plain Text
Язык : Russian
Default : Да
Forced : Нет

Текст #2
Идентификатор : 5
Формат : UTF-8
Идентификатор кодека : S_TEXT/UTF8
Идентификатор кодека/Информация : UTF-8 Plain Text
Язык : English
Default : Нет
Forced : Нет



Скачать Внутренняя.империя.Inland.Empire.(Дэвид.Линч).[2006.фэнтези.триллер.драма.детектив.BDRip-AVC].[MVO]+[Оригинал]+[Sub].torrent без регистрации
Золото ЗОЛОТАЯ РАЗДАЧА! СКАЧАННОЕ НЕ ЗАСЧИТЫВАЕТСЯ! Золото
Дата: Зарегистрирован   [ Тип: внутренний ] Как тут cкачать?
MAGNET ссылка
MAGNET ссылка


Скачать .torrent

14 KB

Статус: проверено DHT
Скачан: торрент - 130 раз, раздача полностью - 283 раз
Размер: 2,76 GB
Оценка:  4 (Голосов: 1)
Поблагодарили: 3
Поделиться ссылкой на эту раздачу с друзьями:
В контактеFacebookОдноклассникиTwitterLivejournalМой МирLiveinternet
 

 
Показать сообщения:    


Вы не можете начинать темы
Вы не можете отвечать на сообщения
Вы не можете редактировать свои сообщения
Вы не можете удалять свои сообщения
Вы не можете голосовать в опросах
Вы не можете прикреплять файлы к сообщениям
Вы можете скачивать файлы