Loading...
Error

Скачать Поцелуй вдовы / Widow's Kiss (Питер Фолди / Peter Foldy) [1996, триллер, VHSRip] [AVO] (Карцев) торрент без регистрации

 
Статистика раздачи
Размер:  1,05 GB   |    Скачан:  159 раз
Сидов:  1  [  0 KB/s  ]  
 
Автор Сообщение

leon030982

[] 

Поцелуй вдовы / Widow's Kiss
«Убивает не только ее внешность...»


Год выпуска: 1996
Страна: США
Жанр: триллер
Продолжительность: 01:38:26
Перевод: Авторский (одноголосый, закадровый)[Петр Карцев]
Cубтитры: нет

Режиссер: Питер Фолди / Peter Foldy

В ролях: Беверли Д’Анджело, МакКензи Эстин, Деннис Хейсбёрт, Брюс Дэвисон, Анна Мария Хорсфорд, Барбара Раш, Патрик Томас

Описание: Красотка Вивиан зарабатывает миллионы долларов, убивая своих мужей. Последний — адвокат Джастин Сейджер — скончался от сердечного приступа вскоре после свадьбы. Его сын Шон намерен доказать вину мачехи и лишить ее наследства…


Качество видео: VHSRip [Источник с CG]
Формат видео: AVI
Видео кодек: XviD
Аудио кодек: AC3
Видео: 608x448 (1.36:1), 25 fps, XviD Final 1.0.3 (build 37) ~1324 kbps avg, 0.19 bit/pixel
Аудио: AC3 Dolby Digital, 48000 Hz, 2/0 ch, 192.00 kbps avg
Дорожка с П. Карцевым из личной коллекции VHS. Синхронизирована, ремастирована и наложена ale_x2008 при помощи Adobe Audition, Sony Vegas и VirtualDubMod.
Благодарю за оцифровку видеокассеты - cinemasonar
E:\INTERNET\Widow's Kiss.1996.VHSRip.[AVO] Karcev.avi
General
Complete name : E:\INTERNET\Widow's Kiss.1996.VHSRip.[AVO] Karcev.avi
Format : AVI
Format/Info : Audio Video Interleave
File size : 1.05 GiB
Duration : 1h 38mn
Overall bit rate : 1 526 Kbps
Writing application : VirtualDubMod 1.5.10.3 (build 2550/release)
Writing library : VirtualDubMod build 2550/release
Video #0
ID : 0
Format : MPEG-4 Visual
Format profile : Simple@L3
Format settings, BVOP : 2
Format settings, QPel : No
Format settings, GMC : No warppoints
Format settings, Matrix : Default (H.263)
Muxing mode : Packed bitstream
Codec ID : XVID
Codec ID/Hint : XviD
Duration : 1h 38mn
Bit rate : 1 324 Kbps
Width : 608 pixels
Height : 448 pixels
Display aspect ratio : 4:3
Frame rate : 25.000 fps
Color space : YUV
Chroma subsampling : 4:2:0
Bit depth : 8 bits
Scan type : Progressive
Compression mode : Lossy
Bits/(Pixel*Frame) : 0.194
Stream size : 932 MiB (87%)
Writing library : XviD 1.0.3 (UTC 2004-12-20)
Audio #1
ID : 1
Format : AC-3
Format/Info : Audio Coding 3
Mode extension : CM (complete main)
Format settings, Endianness : Big
Codec ID : 2000
Duration : 1h 38mn
Bit rate mode : Constant
Bit rate : 192 Kbps
Channel(s) : 2 channels
Channel positions : Front: L R
Sampling rate : 48.0 KHz
Bit depth : 16 bits
Compression mode : Lossy
Stream size : 135 MiB (13%)
Alignment : Split accross interleaves
Interleave, duration : 40 ms (1.00 video frame)
Interleave, preload duration : 500 ms



Скачать Поцелуй.вдовы.Widow's.Kiss.(Питер.Фолди.Peter.Foldy).[1996.триллер.VHSRip].[AVO].(Карцев).torrent без регистрации
Золото ЗОЛОТАЯ РАЗДАЧА! СКАЧАННОЕ НЕ ЗАСЧИТЫВАЕТСЯ! Золото
Дата: Зарегистрирован   [ Тип: внутренний ] Как тут cкачать?
MAGNET ссылка
MAGNET ссылка


Скачать .torrent

11 KB

Статус: проверено DHT
Скачан: торрент - 159 раз, раздача полностью - 36 раз
Размер: 1,05 GB
Оценка:  - (Голосов: 0)
Поблагодарили: 1
Поделиться ссылкой на эту раздачу с друзьями:
В контактеFacebookОдноклассникиTwitterLivejournalМой МирLiveinternet
 

 
Показать сообщения:    


Вы не можете начинать темы
Вы не можете отвечать на сообщения
Вы не можете редактировать свои сообщения
Вы не можете удалять свои сообщения
Вы не можете голосовать в опросах
Вы не можете прикреплять файлы к сообщениям
Вы можете скачивать файлы