Loading...
Error

Скачать Вторые / Seconds (Джон Франкенхаймер) [1966, фантастика, триллер, драма, детектив, BDRip] [AVO]+[Sub] торрент без регистрации

 
Статистика раздачи
Размер:  1,72 GB   |    Скачан:  99 раз
Сидов:  1  [  0 KB/s  ]  
 
Автор Сообщение

Marsianka

[] 

Название: Вторые
Оригинальное название: Seconds
Год выпуска: 1966
Жанр: фантастика, триллер, драма, детектив
Выпущено: США, Gibraltar Productions, Joel Productions, John Frankenheimer Productions Inc., Paramount Pictures
Режиссер: Джон Франкенхаймер
В ролях: Фрэнк Кампанелла, Джон Рэндольф, Фрэнсис Рейд, Барбара Верле, Эдгар Стели, Аарон Мэгидоу, Де Де Янг, Франсуаза Ружиери, Мюррэй Хэмилтон, Том Конрой

О фильме: Существует одна тайная организация, которая предоставляет сильным мира сего шанс, в прямом смысле этого слова, начать новую жизнь. Для этого агентам организации требуется просто найти нужного человека по запросу клиента, после чего разум клиента с помощью особой методики пересаживается в это новое тело. Бизнес этот конечно же нелегален, но сверхприбылен, ибо кто же откажется от возможности фактически обрести бессмертие? Герой фильма - пожилой бизнесмен, жизнь которого скучна, и он, не находя точки опоры, лишь плывёт по течению. После звонка своего покойного друга герой посещает странную организацию, где ему предлагают переродиться. А это значит потерять все прежние связи, обязанности и получить шанс прожить свою жизнь так, как он всегда мечтал.



Качество: BDRip
Видео: XviD, 1898 Кбит/с, 704x400
Аудио: Русский (AC3, 2 ch, 192 Кбит/с), английский (AC3, 1 ch, 192 Кбит/с)
Размер: 1.72 ГБ
Продолжительность: 01:47:20
Перевод: Авторский
Субтитры: Английские

Авторский перевод - Юрий Сербин.
Оскар, 1967 год
Номинации (1):
Лучшая работа оператора (ч/б фильмы)

Каннский кинофестиваль, 1966 год
Номинации (1):
Золотая пальмовая ветвь
Capitan Evidence

Дадут ли тебе третий шанс?

Выбор черно-белого цветового решения для этого фильма несомненно верный и даже яркий ход обыденность и тягучая скучность жизни главного персонажа великолепного подчеркивается полутонами серого.
Кино заставляет задуматься над такими важными для каждого вопросами: Насколько ты доволен своей жизнью? Счастлив ли ты? Почему нет? А что бы ты изменил в своей жизни, чтобы достичь удовлетворения от собственного существования?
Главный герой практически насильственно лишается своего прошлого и получает новую личность. Как? Ничего фантастичного косметическая хирургия, большие деньги (по меркам 60-х годов) и нужные связи. Предполагается, что новая личность без груза надоевшей семьи, с новой работой, соответствующей твоему подсознательному желанию, должны возродить юность человека и дать ему второй шанс на счастье. Но можно поменять «фасад» и окружение, но каждый из нас потянет за собой то, что невозможно изменить извне свою суть. Если ты не был счастлив в прошлой жизни, то, не найдя причину, прежде всего, в себе, и в новой жизни ты будешь тем же «человеком в футляре»...

Итого, заслуженно

8 из 10

Кинопоиск
Общее
Полное имя : E:VideoVtorye.1966.XviD.BDRipVtorye.1966.eng.srt
Формат : SubRip
Размер файла : 81,3 Кбайт

Текст
Формат : SubRip
Метод сжатия : Без потерь

Общее
Полное имя : E:VideoVtorye.1966.XviD.BDRipVtorye.1966.Original.eng.ac3
Формат : AC-3
Формат/Информация : Audio Coding 3
Размер файла : 147 Мбайт
Продолжительность : 1 ч. 47 м.
Режим общего битрейта : Постоянный
Общий поток : 192 Кбит/сек

Аудио
Формат : AC-3
Формат/Информация : Audio Coding 3
Расширение режима : CM (complete main)
Параметр Endianness формата : Big
Продолжительность : 1 ч. 47 м.
Вид битрейта : Постоянный
Битрейт : 192 Кбит/сек
Каналы : 1 канал
Расположение каналов : Front: C
Частота : 48,0 КГц
Битовая глубина : 16 бит
Метод сжатия : С потерями
Размер потока : 147 Мбайт (100%)

Общее
Полное имя : E:VideoVtorye.1966.XviD.BDRipVtorye.1966.XviD.BDRip.avi
Формат : AVI
Формат/Информация : Audio Video Interleave
Размер файла : 1,57 Гбайт
Продолжительность : 1 ч. 47 м.
Общий поток : 2100 Кбит/сек
Программа кодирования : VirtualDubMod 1.5.10.2 (build 2540/release)
Библиотека кодирования : VirtualDubMod build 2540/release

Видео
Идентификатор : 0
Формат : MPEG-4 Visual
Профиль формата : Advanced Simple@L5
Параметр BVOP формата : 1
Параметр QPel формата : Нет
Параметр GMC формата : Без точки перехода
Параметр матрицы формата : Default (H.263)
Режим смешивания : Сжатый битовый поток
Идентификатор кодека : XVID
Идентификатор кодека/Подсказка : XviD
Продолжительность : 1 ч. 47 м.
Битрейт : 1898 Кбит/сек
Ширина : 704 пикселя
Высота : 400 пикселей
Соотношение сторон : 16:9
Частота кадров : 23,976 кадра/сек
Цветовое пространство : YUV
Субдискретизация насыщенности : 4:2:0
Битовая глубина : 8 бит
Тип развёртки : Прогрессивная
Метод сжатия : С потерями
Бит/(Пиксели*Кадры) : 0.281
Размер потока : 1,42 Гбайт (90%)
Библиотека кодирования : XviD 1.2.1 (UTC 2008-12-04)

Аудио
Идентификатор : 1
Формат : AC-3
Формат/Информация : Audio Coding 3
Расширение режима : CM (complete main)
Параметр Endianness формата : Big
Идентификатор кодека : 2000
Продолжительность : 1 ч. 47 м.
Вид битрейта : Постоянный
Битрейт : 192 Кбит/сек
Каналы : 2 канала
Расположение каналов : Front: L R
Частота : 48,0 КГц
Битовая глубина : 16 бит
Метод сжатия : С потерями
Размер потока : 147 Мбайт (9%)
Выравнивание : Разделение по промежуткам
Продолжительность промежутка : 42 мс. (1,00 видеокадр)
Время предзагрузки промежутка : 500 мс.



Скачать Вторые.Seconds.(Джон.Франкенхаймер).[1966.фантастика.триллер.драма.детектив.BDRip].[AVO]+[Sub].torrent без регистрации
Золото ЗОЛОТАЯ РАЗДАЧА! СКАЧАННОЕ НЕ ЗАСЧИТЫВАЕТСЯ! Золото
Дата: Зарегистрирован   [ Тип: внутренний ] Как тут cкачать?
MAGNET ссылка
MAGNET ссылка


Скачать .torrent

18 KB

Статус: проверено DHT
Скачан: торрент - 99 раз, раздача полностью - 6 раз
Размер: 1,72 GB
Оценка:  4 (Голосов: 1)
Поблагодарили: 4
Поделиться ссылкой на эту раздачу с друзьями:
В контактеFacebookОдноклассникиTwitterLivejournalМой МирLiveinternet
 

 
Показать сообщения:    


Вы не можете начинать темы
Вы не можете отвечать на сообщения
Вы не можете редактировать свои сообщения
Вы не можете удалять свои сообщения
Вы не можете голосовать в опросах
Вы не можете прикреплять файлы к сообщениям
Вы можете скачивать файлы