Loading...
Error

Скачать Судья Дредд / Judge Dredd (Дэнни Кэннон / Danny Cannon) [1995, фантастика, боевик, триллер, криминал, HDRip] [DVO] (Екатеринбург Арт) + [AVO] (А.Гаврилов) + [AVO] (Махонько) торрент без регистрации

 
Статистика раздачи
Размер:  1,68 GB   |    Скачан:  154 раза
Сидов:  1  [  0 KB/s  ]  
 
Автор Сообщение

leon030982

[] 

Судья Дредд / Judge Dredd


Год выпуска: 1995
Страна: США
Жанр: Фантастика, боевик
Продолжительность: 01:36:07
Перевод №1: Профессиональный (двухголосный, закадровый) [Екатеринбург Арт]
Перевод №2: Авторский (одноголосный) [А.Гаврилов]
Перевод №3: Авторский (одноголосный) [Махонько]

Режиссер: Дэнни Кэннон / Danny Cannon

В ролях: Сильвестр Сталлоне, Арманд Ассанте, Роб Шнайдер, Юрген Прохнов, Макс фон Сюдов, Дайан Лэйн, Джоэнна Майлз, Джоан Чэнь, Бальтазар Гетти, Морис Роевз

Описание: 2115 год. Глобальная экологическая катастрофа, вызвавшая многочисленные землетрясения, пожары и наводнения, превратила планету в ядовитую, выжженную пустыню. Остатки цивилизации - несколько огромных мегаполисов, на улицах которых воцаряются насилие и хаос. Система правосудия не могла справиться с анархией, и были созданы элитные подразделения, которые сами задерживали, судили, выносили приговор и приводили его в исполнение. Их называли Судьями. Одним из таких судей был крутой и бесстрастный судья Дредд, очищающий улицы Мега-Сити...



Качество видео: HDRip
Формат видео: AVI
Видео кодек: XviD
Аудио кодек: AC3, MP3
Видео: 720x304 (2.37:1), 23.976 fps, XviD build 50 ~1719 kbps avg, 0.33 bit/pixel
Аудио №1: 48 kHz, AC3 Dolby Digital, 2/0 (L,R) ch, ~192.00 kbps avg [Екатеринбург Арт]
Аудио №2: 48 kHz, AC3 Dolby Digital, 3/2 (L,C,R,l,r) + LFE ch, ~448.00 kbps avg [Авторский] (А.Гаврилов)
Аудио №3: 44.100 kHz, MPEG Layer 3, 2 ch, ~128.00 kbps avg [Авторский] (Махонько)

HDRip с переводом А.Гаврилова взят у Шкод@ - за что его и благодарим!
За дорожку Махонько благодарим ermak1990,
дорога Екатеринбург Арт взята из раздачи akchurin.a2011, качество: с Лицензионного CD-MP4 - за что ему большое спасибо!
E:\INTERNET\Judge Dredd.1995.HDRip.[DVO] + 2x[AVO Gavrilov, Mahonko].avi
General
Complete name : E:\INTERNET\Judge Dredd.1995.HDRip.[DVO] + 2x[AVO Gavrilov, Mahonko].avi
Format : AVI
Format/Info : Audio Video Interleave
File size : 1.68 GiB
Duration : 1h 36mn
Overall bit rate : 2 507 Kbps
Writing application : VirtualDubMod 1.5.10.3 (build 2550/release)
Writing library : VirtualDubMod build 2550/release
Video #0
ID : 0
Format : MPEG-4 Visual
Format profile : Advanced Simple@L5
Format settings, BVOP : 1
Format settings, QPel : No
Format settings, GMC : No warppoints
Format settings, Matrix : Default (MPEG)
Codec ID : XVID
Codec ID/Hint : XviD
Duration : 1h 36mn
Bit rate : 1 721 Kbps
Width : 720 pixels
Height : 304 pixels
Display aspect ratio : 2.35:1
Frame rate : 23.976 fps
Color space : YUV
Chroma subsampling : 4:2:0
Bit depth : 8 bits
Scan type : Progressive
Compression mode : Lossy
Bits/(Pixel*Frame) : 0.328
Stream size : 1.16 GiB (69%)
Writing library : XviD 1.2.1 (UTC 2008-12-04)
Audio #1
ID : 1
Format : AC-3
Format/Info : Audio Coding 3
Mode extension : CM (complete main)
Codec ID : 2000
Duration : 1h 36mn
Bit rate mode : Constant
Bit rate : 192 Kbps
Channel(s) : 2 channels
Channel positions : Front: L R
Sampling rate : 48.0 KHz
Bit depth : 16 bits
Compression mode : Lossy
Stream size : 132 MiB (8%)
Alignment : Split accross interleaves
Interleave, duration : 42 ms (1.00 video frame)
Interleave, preload duration : 500 ms
Audio #2
ID : 2
Format : AC-3
Format/Info : Audio Coding 3
Mode extension : CM (complete main)
Codec ID : 2000
Duration : 1h 36mn
Bit rate mode : Constant
Bit rate : 448 Kbps
Channel(s) : 6 channels
Channel positions : Front: L C R, Side: L R, LFE
Sampling rate : 48.0 KHz
Bit depth : 16 bits
Compression mode : Lossy
Stream size : 308 MiB (18%)
Alignment : Split accross interleaves
Interleave, duration : 42 ms (1.00 video frame)
Interleave, preload duration : 500 ms
Audio #3
ID : 3
Format : MPEG Audio
Format version : Version 1
Format profile : Layer 3
Codec ID : 55
Codec ID/Hint : MP3
Duration : 1h 36mn
Bit rate mode : Constant
Bit rate : 128 Kbps
Channel(s) : 2 channels
Sampling rate : 44.1 KHz
Compression mode : Lossy
Stream size : 88.0 MiB (5%)
Alignment : Split accross interleaves
Interleave, duration : 42 ms (1.00 video frame)
Interleave, preload duration : 500 ms




Скачать Судья.Дредд.Judge.Dredd.(Дэнни.Кэннон.Danny.Cannon).[1995.фантастика.боевик.триллер.криминал.HDRip].[DVO].(Екатеринбург.Арт).+.[AVO].(А.Гаврилов).+.[AVO].(Махонько).torrent без регистрации
Золото ЗОЛОТАЯ РАЗДАЧА! СКАЧАННОЕ НЕ ЗАСЧИТЫВАЕТСЯ! Золото
Дата: Зарегистрирован   [ Тип: внутренний ] Как тут cкачать?
MAGNET ссылка
MAGNET ссылка


Скачать .torrent

17 KB

Статус: проверено DHT
Скачан: торрент - 154 раз, раздача полностью - 64 раз
Размер: 1,68 GB
Оценка:  5 (Голосов: 3)
Поблагодарили: 7
Поделиться ссылкой на эту раздачу с друзьями:
В контактеFacebookОдноклассникиTwitterLivejournalМой МирLiveinternet
 

 
Показать сообщения:    


Вы не можете начинать темы
Вы не можете отвечать на сообщения
Вы не можете редактировать свои сообщения
Вы не можете удалять свои сообщения
Вы не можете голосовать в опросах
Вы не можете прикреплять файлы к сообщениям
Вы можете скачивать файлы