Loading...
Error

Скачать Три короля / Three Kings (Дэвид О. Расселл) [1999 г., боевик, комедия, драма, приключения, BDRip-AVC] [AVO] (Ю.Живов) торрент без регистрации

 
Статистика раздачи
Размер:  2,29 GB   |    Скачан:  123 раза
Сидов:  1  [  0 KB/s  ]  
 
Автор Сообщение

leon030982

[] 

Три короля / Three Kings


Год выпуска: 1999
Выпущено: США
Жанр: Комедийный боевик, драма, приключения, военный
Продолжительность: 01:54:47
Перевод: Авторский (одноголосный, закадровый)[Ю.Живов]

Режиссер: Дэвид О. Расселл

В ролях: Джордж Клуни, Марк Уолберг, Айс Кьюб, Спайк Джонз, Нора Данн, Джэми Кеннеди, Микелти Уильямсон, Клифф Кертис, Саид Тагмауи, Джуди Крир, Лиз Стаубер, Холт МакКэллани

Описание: Ирак, март 1991-го года. Американцы празднуют победу — изгнание войск Саддама Хусейна из Кувейта. Капитан спецподразделения Арчи Гейтс и трое его подчиненных совершенно случайно становятся обладателями секретной карты, найденной в… заднем проходе одного из иракских воинов. Ценность ее заключается в том, что на карте указано место, где спрятано золото Саддама, награбленное в Кувейте.


Качество: BDRip [720p]
Формат: MKV
Видео кодек: H.264
Аудио кодек: AC3
Видео: 1280x528, 2405 Кбит/сек, 23,976 кадр/сек, AVC, x264, 2,40:1, 0.148 Бит/[Пиксели*Кадры], 2pass
Аудио: AC-3, 448 Кбит/сек, 6 канала(ов), 48,0 КГц [Ю.Живов]

E:\INTERNET\Three Kings.1999.BDRip.720p.[AVO] (JIVOV)by killermax2013.mkv
General
Unique ID : 233605298536101788907435694350458534673 (0xAFBEBE74482593B1AC06516E2685BB11)
Complete name : E:\INTERNET\Three Kings.1999.BDRip.720p.[AVO] (JIVOV)by killermax2013.mkv
Format : Matroska
Format version : Version 2
File size : 2.29 GiB
Duration : 1h 54mn
Overall bit rate : 2 853 Kbps
Encoded date : UTC 2013-09-08 18:39:37
Writing application : mkvmerge v4.2.0 ('No Talking') сборка от Jul 28 2010 18:38:23
Writing library : libebml v1.0.0 + libmatroska v1.0.0
Video #1
ID : 1
Format : AVC
Format/Info : Advanced Video Codec
Format profile : High@L4.1
Format settings, CABAC : Yes
Format settings, ReFrames : 4 frames
Muxing mode : Header stripping
Codec ID : V_MPEG4/ISO/AVC
Duration : 1h 54mn
Bit rate : 2 405 Kbps
Width : 1 280 pixels
Height : 528 pixels
Display aspect ratio : 2.40:1
Frame rate : 23.976 fps
Color space : YUV
Chroma subsampling : 4:2:0
Bit depth : 8 bits
Scan type : Progressive
Bits/(Pixel*Frame) : 0.148
Stream size : 1.88 GiB (82%)
Writing library : x264 core 104 r1677 19df41a
Encoding settings : cabac=1 / ref=4 / deblock=1:0:0 / analyse=0x3:0x113 / me=hex / subme=4 / psy=1 / psy_rd=0.00:0.00 / mixed_ref=0 / me_range=16 / chroma_me=1 / trellis=1 / 8x8dct=1 / cqm=0 / deadzone=21,11 / fast_pskip=1 / chroma_qp_offset=0 / threads=3 / sliced_threads=0 / nr=0 / decimate=1 / interlaced=0 / constrained_intra=0 / bframes=3 / b_pyramid=0 / b_adapt=1 / b_bias=0 / direct=1 / weightb=1 / open_gop=0 / weightp=1 / keyint=250 / keyint_min=23 / scenecut=40 / intra_refresh=0 / rc_lookahead=40 / rc=2pass / mbtree=1 / bitrate=2405 / ratetol=1.0 / qcomp=0.60 / qpmin=10 / qpmax=51 / qpstep=4 / cplxblur=20.0 / qblur=0.5 / ip_ratio=1.40 / aq=1:1.00
Audio #2
ID : 2
Format : AC-3
Format/Info : Audio Coding 3
Mode extension : CM (complete main)
Muxing mode : Header stripping
Codec ID : A_AC3
Duration : 1h 54mn
Bit rate mode : Constant
Bit rate : 448 Kbps
Channel(s) : 6 channels
Channel positions : Front: L C R, Side: L R, LFE
Sampling rate : 48.0 KHz
Bit depth : 16 bits
Compression mode : Lossy
Stream size : 368 MiB (16%)
Title : [AVO] (JIVOV)
Language : Russian





Скачать Три.короля.Three.Kings.(Дэвид.О.Расселл).[1999.г.боевик.комедия.драма.приключения.BDRip-AVC].[AVO].(Ю.Живов).torrent без регистрации
Золото ЗОЛОТАЯ РАЗДАЧА! СКАЧАННОЕ НЕ ЗАСЧИТЫВАЕТСЯ! Золото
Дата: Зарегистрирован   [ Тип: внутренний ] Как тут cкачать?
MAGNET ссылка
MAGNET ссылка


Скачать .torrent

12 KB

Статус: проверено DHT
Скачан: торрент - 123 раз, раздача полностью - 22 раз
Размер: 2,29 GB
Оценка:  5 (Голосов: 1)
Поблагодарили: 2
Поделиться ссылкой на эту раздачу с друзьями:
В контактеFacebookОдноклассникиTwitterLivejournalМой МирLiveinternet
 

 
Показать сообщения:    


Вы не можете начинать темы
Вы не можете отвечать на сообщения
Вы не можете редактировать свои сообщения
Вы не можете удалять свои сообщения
Вы не можете голосовать в опросах
Вы не можете прикреплять файлы к сообщениям
Вы можете скачивать файлы