Loading...
Error

Скачать Они сражались за Родину (Сергей Бондарчук) [1975, драма, военный, история, HDTVRip] [720p] [полная версия] торрент без регистрации

Статистика раздачи
Размер:  4,37 GB   |    Скачан:  580 раз
Сидов:  1  [  0 KB/s  ]  
 
 
 
Автор Сообщение

МихаНЕзатор

[] 

Страна: СССР
Производство: Мосфильм
Жанр: драма, военный, история
Год выпуска: 1975
Продолжительность: 02:30:28

Перевод: не требуется
Оригинальная аудиодорожка: русский
Cубтитры: нет

Режиссер: Сергей Бондарчук

В ролях: Василий Шукшин (озвучание - Игорь Ефимов), Вячеслав Тихонов, Сергей Бондарчук, Георгий Бурков, Юрий Никулин, Иван Лапиков, Николай Губенко, Андрей Ростоцкий, Николай Волков, Николай Шутько, Евгений Самойлов, Нонна Мордюкова, Иннокентий Смоктуновский, Ангелина Степанова, Ирина Скобцева, Татьяна Божок, Лидия Федосеева-Шукшина (озвучание - Наталья Гундарева), Даниил Ильченко, Алексей Ванин, Николай Горлов, Геннадий Сафронов, Борис Никифоров, Анатолий Переверзев, Виталий Леонов, Михаил Чигарев, Станислав Бородокин, Леонид Трутнев, Пётр Меркурьев, Алексей Коняшин, Владимир Мышкин, Юнус Юсупов, Хашим Рахимов, Ермахмад Аралев, Александр Безыментов, Игорь Кузнецов, Виктор Волков, Коля Ефремов, Андрей Попов (текст за кадром)

Описание: Июль 1942 года, Великая Отечественная война. На подступах к Сталинграду обескровленные, измотанные советские войска ведут тяжелые оборонительные бои, неся огромные потери. Небольшое стрелковое подразделение под командованием капитана Сумскова получило приказ: под огнём вражеской авиации и артиллерии обеспечить переправу через Дон советских воинских частей. На дороге - широкие следы танковых гусениц, чётко отпечатанные в серой пыли. А по сторонам - словно вымершая от зноя степь: устало полёгшие травы, тускло блестящие солончаки, голубое трепетное марево над дальними курганами. Четыре дня стояли насмерть у степного хутора солдаты - Стрельцов, Лопахин, Звягинцев - люди мирных профессий, которых война заставила надеть шинели...



Исходник: HDTV 1080i
Тип релиза: HDTVRip 720p
Контейнер: MKV

Видео: 1120x720 (1,556:1), 25 fps, H264 ~ 3967 kbps avg, 0.197 bit/pixel
Аудио: 48 kHz, Dolby AC3 2.0, 192 kbps


Общее
Полное имя : Oni.srazhalis.za.Rodinu.1975.HDTVRip720p_[Youtracker]_by_AVP Studio.mkv
Формат : Matroska
Версия формата : Version 2
Размер файла : 4,37 Гбайт
Продолжительность : 2 ч. 30 м.
Общий поток : 4161 Кбит/сек
Дата кодирования : UTC 2013-09-09 06:32:45
Программа кодирования : mkvmerge v6.1.0 ('Old Devil') built on Mar 4 2013 09:10:42
Библиотека кодирования : libebml v1.3.0 + libmatroska v1.4.0

Видео
Идентификатор : 1
Формат : AVC
Формат/Информация : Advanced Video Codec
Профиль формата : High@L4.1
Параметр CABAC формата : Да
Параметр ReFrames формата : 8 кадров
Идентификатор кодека : V_MPEG4/ISO/AVC
Продолжительность : 2 ч. 30 м.
Битрейт : 3967 Кбит/сек
Ширина : 1120 пикселей
Высота : 720 пикселей
Соотношение сторон : 1,556
Частота кадров : 25,000 кадров/сек
Цветовое пространство : YUV
Субдискретизация насыщенности : 4:2:0
Битовая глубина : 8 бит
Тип развёртки : Прогрессивная
Бит/(Пиксели*Кадры) : 0.197
Размер потока : 4,08 Гбайт (93%)
Библиотека кодирования : x264 core 130 r2273 b3065e6
Настройки программы : cabac=1 / ref=8 / deblock=1:-3:-3 / analyse=0x3:0x133 / me=umh / subme=9 / psy=1 / psy_rd=1.00:0.15 / mixed_ref=1 / me_range=32 / chroma_me=1 / trellis=1 / 8x8dct=1 / cqm=0 / deadzone=21,11 / fast_pskip=1 / chroma_qp_offset=-3 / threads=3 / lookahead_threads=1 / sliced_threads=0 / nr=0 / decimate=1 / interlaced=0 / bluray_compat=0 / constrained_intra=0 / bframes=8 / b_pyramid=2 / b_adapt=2 / b_bias=0 / direct=3 / weightb=1 / open_gop=0 / weightp=2 / keyint=250 / keyint_min=25 / scenecut=40 / intra_refresh=0 / rc=2pass / mbtree=0 / bitrate=3967 / ratetol=1.0 / qcomp=0.60 / qpmin=0 / qpmax=69 / qpstep=4 / cplxblur=20.0 / qblur=0.5 / ip_ratio=1.40 / pb_ratio=1.30 / aq=1:1.00
Default : Да
Forced : Нет

Аудио
Идентификатор : 2
Формат : AC-3
Формат/Информация : Audio Coding 3
Расширение режима : CM (complete main)
Идентификатор кодека : A_AC3
Продолжительность : 2 ч. 30 м.
Вид битрейта : Постоянный
Битрейт : 192 Кбит/сек
Каналы : 2 канала
Расположение каналов : Front: L R
Частота : 48,0 КГц
Битовая глубина : 16 бит
Метод сжатия : С потерями
Размер потока : 207 Мбайт (5%)
Default : Да
Forced : Нет




Скачать Они.сражались.за.Родину.(Сергей.Бондарчук).[1975.драма.военный.история.HDTVRip].[720p].[полная.версия].torrent без регистрации
Золото ЗОЛОТАЯ РАЗДАЧА! СКАЧАННОЕ НЕ ЗАСЧИТЫВАЕТСЯ! Золото
Дата: Зарегистрирован   [ Тип: внутренний ] Как тут cкачать?
MAGNET ссылка
MAGNET ссылка


Скачать .torrent

12 KB

Статус: проверено DHT
Скачан: торрент - 580 раз, раздача полностью - 318 раз
Размер: 4,37 GB
Оценка:  4,8 (Голосов: 9)
Поблагодарили: 11
Поделиться ссылкой на эту раздачу с друзьями:
В контактеFacebookОдноклассникиTwitterLivejournalМой МирLiveinternet
 

 

fat2010

[] 

Спасибо!Классика! ay
 

Bond007

[] 

Лучшее из военной классики ...
 

еремей

[] 

Можно было рип и в более высоком качестве сделать
 
Показать сообщения:    


Вы не можете начинать темы
Вы не можете отвечать на сообщения
Вы не можете редактировать свои сообщения
Вы не можете удалять свои сообщения
Вы не можете голосовать в опросах
Вы не можете прикреплять файлы к сообщениям
Вы можете скачивать файлы