Loading...
Error

Скачать Что останется после тебя? / What Remains (01x01-04 из 04) (Коки Гидройч) [2013, драма, WEBRip] [MVO (Agatha Studdio)] торрент без регистрации

 
Статистика раздачи
Размер:  2,97 GB   |    Скачан:  129 раз
Сидов:  1  [  0 KB/s  ]  
 
Автор Сообщение

МихаНЕзатор

[] 

Информация о фильме
Название: Что останется после тебя?
Оригинальное название: What Remains
Год выхода: 2013
Жанр: драма
Режиссер: Коки Гидройч / Coky Giedroyc

В ролях: Дэвид Трелфолл, Денис Гоф, Лиза Миллетт, Александр Арнольд, Дэвид Бамбер, Клоди Блейкли, Джессика Ганнинг, Виктория Хэмилтон, Стивен Макинтош, Эмбер Роуз Рева

О фильме:
После того как разложившееся тело Мелиссы Янг было найдено двумя новосёлами в доме, где она жила, детектив Лен Харпер приступает к расследованию того, что с ней произошло, и почему больше двух лет никто не замечал её исчезновения. Какие тайны хранят соседи пятиквартирного дома?

Доп. информация: Основано на реальных событиях, потрясших Великобританию. Тело девушки по имени Джойс (Joyce Carol Vincent) было найдено спустя почти три года. Под дверью была гора почты, в квартире телевизор по-прежнему показывал канал BBC. Также был снят документальный фильм "Dreams Of A Life".

Страна: Великобритания
Продолжительность: 00:59:00 серия
Перевод: Профессиональный (многоголосый закадровый) [Agatha Studdio]

Файл
Кодек: XviD / MP3
Качество: WEBRip
Видео: 720x400 (16:9), 25.000 fps, 1400 Kbps, 0.194 bit/pixel
Звук:
Аудио 1: RUS - 192 Кб/сек 48 kHz, MPEG Layer 3, 2 ch
Аудио 2: ENG - 192 Кб/сек 48 kHz, MPEG Layer 3, 2 ch



24.09.2013 г. торент обновлён, добавлена 4-я серия!
General
Complete name : E:What.Remains.s01.Agatha.StuddioWhat.Remains.s01e01_Agatha.Studdio.avi
Format : AVI
Format/Info : Audio Video Interleave
File size : 759 MiB
Duration : 59mn 0s
Overall bit rate : 1 799 Kbps
Writing application : VirtualDubModRus 1.5.10.2 (build 2542/release)
Writing library : VirtualDubMod build 2542/release

Video
ID : 0
Format : MPEG-4 Visual
Format profile : Advanced Simple@L5
Format settings, BVOP : 1
Format settings, QPel : No
Format settings, GMC : No warppoints
Format settings, Matrix : Default (MPEG)
Codec ID : DX50
Codec ID/Hint : DivX 5
Duration : 59mn 0s
Bit rate : 1 400 Kbps
Width : 720 pixels
Height : 400 pixels
Display aspect ratio : 16:9
Frame rate : 25.000 fps
Color space : YUV
Chroma subsampling : 4:2:0
Bit depth : 8 bits
Scan type : Progressive
Compression mode : Lossy
Bits/(Pixel*Frame) : 0.194
Stream size : 591 MiB (78%)
Writing library : XviD 73

Audio #1
ID : 1
Format : MPEG Audio
Format version : Version 1
Format profile : Layer 3
Mode : Joint stereo
Mode extension : MS Stereo
Codec ID : 55
Codec ID/Hint : MP3
Duration : 59mn 0s
Bit rate mode : Constant
Bit rate : 192 Kbps
Channel(s) : 2 channels
Sampling rate : 48.0 KHz
Compression mode : Lossy
Stream size : 81.0 MiB (11%)
Alignment : Aligned on interleaves
Interleave, duration : 40 ms (1.00 video frame)
Interleave, preload duration : 504 ms
Writing library : LAME3.98r
Encoding settings : -m j -V 4 -q 3 -lowpass 18 -b 192

Audio #2
ID : 2
Format : MPEG Audio
Format version : Version 1
Format profile : Layer 3
Mode : Joint stereo
Mode extension : MS Stereo
Codec ID : 55
Codec ID/Hint : MP3
Duration : 59mn 0s
Bit rate mode : Constant
Bit rate : 192 Kbps
Channel(s) : 2 channels
Sampling rate : 48.0 KHz
Compression mode : Lossy
Stream size : 81.0 MiB (11%)
Alignment : Aligned on interleaves
Interleave, duration : 40 ms (1.00 video frame)
Interleave, preload duration : 504 ms
Writing library : LAME3.98r
Encoding settings : -m j -V 4 -q 3 -lowpass 18 -b 192
Раздача ведётся путём добавления новых серий; при каждом добавлении создаётся новый торрент. Чтобы начать докачку новой серии, пользователям необходимо сделать следующее:
(1) остановить скачивание,
(2) удалить старый торрент у себя из клиента (старые серии удалять не надо),
(3) скачать новый торрент и запустить его у себя в клиенте вместо старого, при этом указать клиенту путь в старую папку куда и должно происходить скачивание новых серий.

Ваш клиент при этом должен произвести хеширование (проверку) старой папки (если не производит сам - помогите ему сделать это), и будет докачивать только те серии которых у вас ещё нет. Старые серии при этом не удаляются, а продолжают раздаваться!

Eсли вы уже удалили старые серии, то предотвратить повторную закачку старых серий можно, отжав галочку в соответствующих местах при запуске нового торрента. По возможности, желательно не удалять старые серии как можно дольше чтобы релизёр не столько продолжал раздавать старые серии, а смог сконцентрироваться на новых.



Скачать Что.останется.после.тебя?.What.Remains.(01x01-04.из.04).(Коки.Гидройч).[2013.драма.WEBRip].[MVO.(Agatha.Studdio)].torrent без регистрации
Золото ЗОЛОТАЯ РАЗДАЧА! СКАЧАННОЕ НЕ ЗАСЧИТЫВАЕТСЯ! Золото
Дата: Зарегистрирован   [ Тип: внутренний ] Как тут cкачать?
MAGNET ссылка
MAGNET ссылка


Скачать .torrent

16 KB

Статус: проверено DHT
Скачан: торрент - 129 раз, раздача полностью - 19 раз
Размер: 2,97 GB
Оценка:  - (Голосов: 0)
Поблагодарили: 1
Поделиться ссылкой на эту раздачу с друзьями:
В контактеFacebookОдноклассникиTwitterLivejournalМой МирLiveinternet
 

 

МихаНЕзатор

[] 

Раздача обновлена.
 
Показать сообщения:    


Вы не можете начинать темы
Вы не можете отвечать на сообщения
Вы не можете редактировать свои сообщения
Вы не можете удалять свои сообщения
Вы не можете голосовать в опросах
Вы не можете прикреплять файлы к сообщениям
Вы можете скачивать файлы