Loading...
Error

Скачать Моя жена и дети / My Wife and Kids (Полный 4-ий сезон) (Damon Wayans) [2003-2004 г., комедия, PDTVRip] [MVO] торрент без регистрации

 
Статистика раздачи
Размер:  5,15 GB   |    Скачан:  117 раз
Сидов:  1  [  0 KB/s  ]  
 
Автор Сообщение

leon030982

[] 

Моя жена и дети / My Wife and Kids (Полный 4-ий сезон)


Год выпуска: 2003-2004
Страна: США
Жанр: комедия
Продолжительность: ~00:20
Перевод: Профессиональный (многоголосый, закадровый) (Fox Life)
Режиссер: Damon Wayans

В ролях: Damon Wayans (Michael Kyle), Jazz Raycole (Claire Kyle), George O. Gore II (Michael Kyle Jr.), Tisha Campbell (Janet Marie "Jay" Kyle), Parker McKenna Posey (Kady Kyle)

Описание: МАЙКЛ КАЙЛ – сторонник патриархата, поэтому у него в доме царит особенный стиль управления. Он учит детей жизни с характерным только ему юмором и мудростью. Жене Майкла, ДЖАНЕТ, удается успевать везде – и заниматься домом, и строить карьеру, и обмениваться остротами с мужем. У них есть трое детей: ДЖУНИОР, которому частенько достается от остроумного и строгого папочки; дочка-подросток КЛЭР, у которой постоянно меняется настроение и вечно не хватает денег, и маленькая КЭДИ, которая редко позволяет папе сказать последнее слово.



Качество: PDTVRip
Формат: AVI
Видео кодек: XviD
Аудио кодек: MP3
Видео: 640x480 (1.33:1), 25 fps, XviD build 9 ~1067 kbps avg, 0.14 bit/pixel
Аудио: 48 kHz, MPEG Layer 3, 2 ch, ~128.00 kbps avg
General
Complete name : E:\INTERNET\My Wife and Kids-4\My.Wife.and.Kids.s04e01.PDTVRip.Rus.1001cinema.avi
Format : AVI
Format/Info : Audio Video Interleave
File size : 171 MiB
Duration : 19mn 47s
Overall bit rate : 1 206 Kbps
Writing application : VirtualDubMod 1.5.10.1 (build 2439/release)
Writing library : VirtualDub build 30091/release

Video
ID : 0
Format : MPEG-4 Visual
Format profile : Simple@L3
Format settings, BVOP : Yes
Format settings, QPel : No
Format settings, GMC : No warppoints
Format settings, Matrix : Default (H.263)
Codec ID : XVID
Codec ID/Hint : XviD
Duration : 19mn 47s
Bit rate : 1 068 Kbps
Width : 640 pixels
Height : 480 pixels
Display aspect ratio : 4:3
Frame rate : 25.000 fps
Color space : YUV
Chroma subsampling : 4:2:0
Bit depth : 8 bits
Scan type : Progressive
Bits/(Pixel*Frame) : 0.139
Stream size : 151 MiB (89%)
Writing library : XviD 0.0.09 (UTC 2003-03-25)

Audio
ID : 1
Format : MPEG Audio
Format version : Version 1
Format profile : Layer 3
Mode : Joint stereo
Mode extension : MS Stereo
Codec ID : 55
Codec ID/Hint : MP3
Duration : 19mn 47s
Bit rate mode : Constant
Bit rate : 128 Kbps
Channel(s) : 2 channels
Sampling rate : 48.0 KHz
Stream size : 18.1 MiB (11%)
Alignment : Split accross interleaves
Interleave, duration : 40 ms (1.00 video frame)
Interleave, preload duration : 500 ms



Скачать Моя.жена.и.дети.My.Wife.and.Kids.(Полный.4-ий.сезон).(Damon.Wayans).[2003-2004.г.комедия.PDTVRip].[MVO].torrent без регистрации
Золото ЗОЛОТАЯ РАЗДАЧА! СКАЧАННОЕ НЕ ЗАСЧИТЫВАЕТСЯ! Золото
Дата: Зарегистрирован   [ Тип: внутренний ] Как тут cкачать?
MAGNET ссылка
MAGNET ссылка


Скачать .torrent

29 KB

Статус: проверено DHT
Скачан: торрент - 117 раз, раздача полностью - 86 раз
Размер: 5,15 GB
Оценка:  5 (Голосов: 1)
Поблагодарили: 2
Поделиться ссылкой на эту раздачу с друзьями:
В контактеFacebookОдноклассникиTwitterLivejournalМой МирLiveinternet
 

 
Показать сообщения:    


Вы не можете начинать темы
Вы не можете отвечать на сообщения
Вы не можете редактировать свои сообщения
Вы не можете удалять свои сообщения
Вы не можете голосовать в опросах
Вы не можете прикреплять файлы к сообщениям
Вы можете скачивать файлы