Loading...
Error

Скачать Гран Торино / Gran Torino (Клинт Иствуд) [2008, драма, криминал, BDRip-AVC] [AVO] (Ю.Сербин) торрент без регистрации

 
Статистика раздачи
Размер:  1,51 GB   |    Скачан:  151 раз
Сидов:  1  [  0 KB/s  ]  
 
Автор Сообщение

leon030982

[] 

Гран Торино / Gran Torino



Год выпуска: 2008
Производство: США, Австралия
Жанр: Драма, криминал
Продолжительность: 01:56:34
Перевод: Авторский (одноголосный)[Ю.Сербин]
Субтитры: Русские, английские
Режиссер: Клинт Иствуд

В ролях: Клинт Иствуд, Кристофер Карли, Би Ванг, Эни Хи, Брайан Хейли, Джеральдин Хьюз, Дрима Уолкер, Брайан Хау, Джон Кэрролл Линч, Уильям Хилл

О фильме: Вышедший на пенсию автомеханик Уолт Ковальски проводит дни, чиня что-то по дому, попивая пиво и раз в месяц заходя к парикмахеру. И хотя последним желанием его недавно почившей жены было совершение им исповеди, Уолту ожесточившемуся ветерану Корейской войны, всегда держащему свою винтовку наготове, признаваться в общем-то не в чем. Да и нет того, кому он доверял бы в той полной мере, в какой доверяет своей собаке Дейзи. Все те люди, коих он некогда называл своими соседями, либо переехали, либо ушли в мир иной, а на смену им пришли иммигранты-хмоны, которых он откровенно презирает. Противясь буквально всему, во что упирается его взгляд, покосившиеся карнизы, заросшие лужайки домов и лица иностранцев повсюду; бесцельно шатающиеся шайки подростков, состоящие из хмонов, латиносов и афро-американцев, полагающих, что окрестный мир целиком принадлежит им одним; неоперившиеся чужаки, в которых оказалось превратились собственные дети и внуки, Уолт просто неспешно проживает остаток своей жизни. До той самой ночи, когда кто-то попытается украсть его «Гран Торино»



Качество: BDRip-AVC [BDRemux]
Формат: MKV
Видео кодек: h.264
Аудио кодек: AC3
Видео: H.264, 960x400 (2,40:1), 23,976 кадр/сек, 1408 Кбит/сек, 0.153 bit/pixel
Аудио: 48 kHz, AC3 Dolby Digital, 3/2 (L,C,R,l,r) + LFE ch, ~448.00 kbps avg
General
Complete name : E:\INTERNET\Gran Torino.2008.BDRip.[AVO] (Serbin).mkv
Format : Matroska
File size : 1.51 GiB
Duration : 1h 56mn
Overall bit rate : 1 857 Kbps
Encoded date : UTC 2013-09-13 19:05:55
Writing application : mkvmerge v4.2.0 ('No Talking') сборка от Jul 28 2010
Writing library : libebml v1.0.0 + libmatroska v1.0.0

Video
ID : 1
Format : AVC
Format/Info : Advanced Video Codec
Format profile : High@L4.1
Format settings, CABAC : No
Format settings, ReFrames : 13 frames
Muxing mode : Container profile=Unknown@4.1
Codec ID : V_MPEG4/ISO/AVC
Duration : 1h 56mn
Bit rate : 1 408 Kbps
Width : 960 pixels
Height : 400 pixels
Display aspect ratio : 2.40:1
Frame rate mode : Variable
Frame rate : 23.976 fps
Color space : YUV
Chroma subsampling : 4:2:0
Bit depth : 8 bits
Scan type : Progressive
Bits/(Pixel*Frame) : 0.153
Stream size : 1.12 GiB (74%)
Writing library : x264 core 116 r2019M 9cc407d
Encoding settings : cabac=0 / ref=14 / deblock=1:-3:-3 / analyse=0x3:0x133 / me=umh / subme=9 / psy=1 / psy_rd=1.00:0.00 / mixed_ref=1 / me_range=56 / chroma_me=1 / trellis=1 / 8x8dct=1 / cqm=0 / deadzone=21,13 / fast_pskip=0 / chroma_qp_offset=-2 / threads=8 / sliced_threads=0 / nr=0 / decimate=1 / interlaced=0 / bluray_compat=0 / constrained_intra=0 / bframes=8 / b_pyramid=1 / b_adapt=2 / b_bias=0 / direct=3 / weightb=1 / open_gop=0 / weightp=2 / keyint=230 / keyint_min=23 / scenecut=40 / intra_refresh=0 / rc_lookahead=100 / rc=2pass / mbtree=1 / bitrate=1408 / ratetol=1.0 / qcomp=0.60 / qpmin=10 / qpmax=51 / qpstep=4 / cplxblur=20.0 / qblur=0.5 / ip_ratio=1.37 / aq=1:1.20

Audio
ID : 2
Format : AC-3
Format/Info : Audio Coding 3
Mode extension : CM (complete main)
Codec ID : A_AC3
Duration : 1h 56mn
Bit rate mode : Constant
Bit rate : 448 Kbps
Channel(s) : 6 channels
Channel positions : Front: L C R, Side: L R, LFE
Sampling rate : 48.0 KHz
Bit depth : 16 bits
Video delay : 4s 500ms
Stream size : 374 MiB (24%)
Title : AVO (Serbin)
Language : Russian

Text #1
ID : 3
Format : UTF-8
Codec ID : S_TEXT/UTF8
Codec ID/Info : UTF-8 Plain Text
Title : Forced

Text #2
ID : 4
Format : UTF-8
Codec ID : S_TEXT/UTF8
Codec ID/Info : UTF-8 Plain Text

Text #3
ID : 5
Format : UTF-8
Codec ID : S_TEXT/UTF8
Codec ID/Info : UTF-8 Plain Text
Title : Forced
Language : Russian

Text #4
ID : 6
Format : UTF-8
Codec ID : S_TEXT/UTF8
Codec ID/Info : UTF-8 Plain Text
Language : Russian



Скачать Гран.Торино.Gran.Torino.(Клинт.Иствуд).[2008.драма.криминал.BDRip-AVC].[AVO].(Ю.Сербин).torrent без регистрации
Золото ЗОЛОТАЯ РАЗДАЧА! СКАЧАННОЕ НЕ ЗАСЧИТЫВАЕТСЯ! Золото
Дата: Зарегистрирован   [ Тип: внутренний ] Как тут cкачать?
MAGNET ссылка
MAGNET ссылка


Скачать .torrent

16 KB

Статус: проверено DHT
Скачан: торрент - 151 раз, раздача полностью - 12 раз
Размер: 1,51 GB
Оценка:  5 (Голосов: 1)
Поблагодарили: 1
Поделиться ссылкой на эту раздачу с друзьями:
В контактеFacebookОдноклассникиTwitterLivejournalМой МирLiveinternet
 

 
Показать сообщения:    


Вы не можете начинать темы
Вы не можете отвечать на сообщения
Вы не можете редактировать свои сообщения
Вы не можете удалять свои сообщения
Вы не можете голосовать в опросах
Вы не можете прикреплять файлы к сообщениям
Вы можете скачивать файлы