Loading...
Error

Скачать Айронсайд / Ironside (Питер Хортон) (Сезон 01, серия 01 из ???) [2013, Драма, WEB-DLRip] [MVO] торрент без регистрации

 
Статистика раздачи
Размер:  700 MB   |    Скачан:  108 раз
Сидов:  1  [  0 KB/s  ]  
 
Автор Сообщение

leon030982

[] 

Айронсайд / Ironside


Год выпуска: 2013
Жанр: Драма
Выпущено: США, Davis Entertainment, NBC Universal Television, Yellow Brick Road
Продолжительность: 00:42:43
Перевод: Любительское (многоголосое) [Ирина Грачева, Адам Шухарт, Алёна Соколова, Максим Максимов]

Режиссер: Питер Хортон

В ролях: Блэр Андервуд, Брент Секстон, Пабло Шрайбер, Спенсер Грэммер, Нил Эндрю Бледсо, Кеннет Чои, Шеви Берковиц Гутьеррез, Илья Константин, Патрик Брана, Эдди Р. Браун III

О фильме:

В Нью-Йоркской полиции нет никого жестче, чем детектив Роберт Айронсайд. Он бесстрашный полицейский, который не остановится, пока виновные не будут привлечены к ответственности. Он и его команда специалистов сделают все возможное, чтобы распутать самые сложные и громкие преступления даже если придется преступить закон


Качество: WEB-DLRip
Видео кодек: XviD
Аудио кодек: AC3
Видео: 720x400 (1.80:1), 23.976 fps, XviD build 50 ~2090 kbps avg, 0.30 bit/pixel
Аудио: 48 kHz, AC3 Dolby Digital, 2/0 (L,R) ch, ~192.00 kbps avg
General
Complete name : E:\INTERNET\Ironside.2013.L.S01E01.WEB-DLRip\Ironside.2013.L.S01E01.WEB-DLRip.avi
Format : AVI
Format/Info : Audio Video Interleave
File size : 700 MiB
Duration : 42mn 41s
Overall bit rate : 2 292 Kbps
Writing application : VirtualDubMod 1.5.10.2 (build 2542/release)
Writing library : VirtualDubMod build 2542/release

Video
ID : 0
Format : MPEG-4 Visual
Format profile : Advanced Simple@L5
Format settings, BVOP : Yes
Format settings, QPel : No
Format settings, GMC : No warppoints
Format settings, Matrix : Default (H.263)
Codec ID : XVID
Codec ID/Hint : XviD
Duration : 42mn 41s
Bit rate : 2 091 Kbps
Width : 720 pixels
Height : 400 pixels
Display aspect ratio : 16:9
Frame rate : 23.976 fps
Color space : YUV
Chroma subsampling : 4:2:0
Bit depth : 8 bits
Scan type : Progressive
Bits/(Pixel*Frame) : 0.303
Stream size : 638 MiB (91%)
Writing library : XviD 1.2.1 (UTC 2008-12-04)

Audio
ID : 1
Format : AC-3
Format/Info : Audio Coding 3
Mode extension : CM (complete main)
Codec ID : 2000
Duration : 42mn 41s
Bit rate mode : Constant
Bit rate : 192 Kbps
Channel(s) : 2 channels
Channel positions : Front: L R
Sampling rate : 48.0 KHz
Bit depth : 16 bits
Stream size : 58.6 MiB (8%)
Alignment : Split accross interleaves
Interleave, duration : 42 ms (1.00 video frame)
Interleave, preload duration : 500 ms



Скачать Айронсайд.Ironside.(Питер.Хортон).(Сезон.01.серия.01.из.???).[2013.Драма.WEB-DLRip].[MVO].torrent без регистрации
Золото ЗОЛОТАЯ РАЗДАЧА! СКАЧАННОЕ НЕ ЗАСЧИТЫВАЕТСЯ! Золото
Дата: Зарегистрирован   [ Тип: внутренний ] Как тут cкачать?
MAGNET ссылка
MAGNET ссылка


Скачать .torrent

14 KB

Статус: проверено DHT
Скачан: торрент - 108 раз, раздача полностью - 1 раз
Размер: 700 MB
Оценка:  5 (Голосов: 1)
Поблагодарили: 0
Поделиться ссылкой на эту раздачу с друзьями:
В контактеFacebookОдноклассникиTwitterLivejournalМой МирLiveinternet
 

 
Показать сообщения:    


Вы не можете начинать темы
Вы не можете отвечать на сообщения
Вы не можете редактировать свои сообщения
Вы не можете удалять свои сообщения
Вы не можете голосовать в опросах
Вы не можете прикреплять файлы к сообщениям
Вы можете скачивать файлы