Loading...
Error

Скачать Воин-призрак / Ghost Warrior (Дж. Ларри Кэрролл) [1985 г., фантастика, боевик, HDTVRip] [DVO] (НТВ+) торрент без регистрации

 
Статистика раздачи
Размер:  749 MB   |    Скачан:  115 раз
Сидов:  1  [  0 KB/s  ]  
 
Автор Сообщение

durik

[] 

Воин-призрак / Ghost Warrior

Название: Воин-призрак
Оригинальное название: Ghost Warrior
Год выхода: 1985
Жанр: фантастика, боевик
Режиссер: Дж. Ларри Кэрролл
В ролях: Хироси Фудзиока, Джон Кэлвин, Джанет Джулиан, Чарльз Лампкин, Фрэнк Шуллер, Билл Мори, Энди Вуд, Роберт Кино, Джоан Фоли, Питер Ляпис

О фильме:
1552 год. На глазах у самурая Йоши убивают любимую, а его самого сбрасывают в ледяное озеро. В наши дни сохранившееся во льду тело Йоши доставляют в США в секретную лабораторию, где древнего воина возвращают к жизни.
Один из сотрудников лаборатории попытался стащить самурайский меч, за что и поплатился жизнью. Встревоженный самурай сбегает из больницы на свободу, где на улицах современного Лос-Анжелеса его окружает совершенно чужой и непонятный мир. Однако, когда он становится свидетелем нападения на беззащитного прохожего, Йоши спасает жертву грабежа.
Предводитель банды выслеживает самурая и приводит с собой подмогу. Йоши и на этот раз расправляется с подонками. Но затем охоту на него начинает и полиция, разыскивающая древнего воина из лаборатории. Через четыре столетия история повторяется — самурай вновь оказывается один против всех.



Страна: США
Студия: Albert Band International Productions Inc., Empire Pictures, Harkham Productions
Продолжительность: 01:17:31
Перевод: Профессиональный двухголосый (закадровый) [НТВ+]

Кодек: XviD
Качество: HDTVRip
Видео: XviD 73, 720x400, 1148 kbps, 25 fps, 0,160 Bits/(Pixel*Frame)
Звук: AC3, 48 kHz, 192 kbps, 2 ch
Субтитры: Отсутствуют

Релиз от:

Автор рипа: Bathory
General
Complete name : H:Voin-prizrak.1985.HDTVRip.avi
Format : AVI
Format/Info : Audio Video Interleave
File size : 749 MiB
Duration : 1h 17mn
Overall bit rate : 1 350 Kbps
Writing application : VirtualDubMod 1.5.10.3 | www.virtualdub-fr.org || (build 2550/release)
Writing library : VirtualDubMod build 2550/release

Video
ID : 0
Format : MPEG-4 Visual
Format profile : Advanced Simple@L5
Format settings, BVOP : 3
Format settings, QPel : No
Format settings, GMC : No warppoints
Format settings, Matrix : Default (H.263)
Codec ID : XVID
Codec ID/Hint : XviD
Duration : 1h 17mn
Bit rate : 1 148 Kbps
Width : 720 pixels
Height : 400 pixels
Display aspect ratio : 16:9
Frame rate : 25.000 fps
Color space : YUV
Chroma subsampling : 4:2:0
Bit depth : 8 bits
Scan type : Progressive
Compression mode : Lossy
Bits/(Pixel*Frame) : 0.160
Stream size : 637 MiB (85%)
Writing library : XviD 73

Audio
ID : 1
Format : AC-3
Format/Info : Audio Coding 3
Mode extension : CM (complete main)
Format settings, Endianness : Big
Codec ID : 2000
Duration : 1h 17mn
Bit rate mode : Constant
Bit rate : 192 Kbps
Channel(s) : 2 channels
Channel positions : Front: L R
Sampling rate : 48.0 KHz
Bit depth : 16 bits
Compression mode : Lossy
Stream size : 106 MiB (14%)
Alignment : Split accross interleaves
Interleave, duration : 40 ms (1.00 video frame)
Interleave, preload duration : 500 ms



Скачать Воин-призрак.Ghost.Warrior.(Дж.Ларри.Кэрролл).[1985.г.фантастика.боевик.HDTVRip].[DVO].(НТВ+).torrent без регистрации
Золото ЗОЛОТАЯ РАЗДАЧА! СКАЧАННОЕ НЕ ЗАСЧИТЫВАЕТСЯ! Золото
Дата: Зарегистрирован   [ Тип: внутренний ] Как тут cкачать?
MAGNET ссылка
MAGNET ссылка


Скачать .torrent

15 KB

Статус: проверено DHT
Скачан: торрент - 115 раз, раздача полностью - 28 раз
Размер: 749 MB
Оценка:  - (Голосов: 0)
Поблагодарили: 2
Поделиться ссылкой на эту раздачу с друзьями:
В контактеFacebookОдноклассникиTwitterLivejournalМой МирLiveinternet
 

 
Показать сообщения:    


Вы не можете начинать темы
Вы не можете отвечать на сообщения
Вы не можете редактировать свои сообщения
Вы не можете удалять свои сообщения
Вы не можете голосовать в опросах
Вы не можете прикреплять файлы к сообщениям
Вы можете скачивать файлы