Loading...
Error

Скачать Убить любой ценой / Overkill (Дин Рафаэль Феррандини) [1996, Боевик , DVDRip] [AVO] (Ю.Сербин) торрент без регистрации

 
Статистика раздачи
Размер:  1,05 GB   |    Скачан:  129 раз

Полного источника не было: 25 минут

 
Автор Сообщение

leon030982

[] 

Убить любой ценой / Overkill


Год выпуска: 1996
Страна: США
Жанр: Боевик
Продолжительность: 01:31:52
Перевод: Авторский (одноголосый)[Юрий Сербин]

Режиссер: Дин Рафаэль Феррандини /Dean Raphael Ferrandini

В ролях: Аарон Норрис, Майкл Нури, Кеннет Москоу, Памела Дикерсон, Дэвид Роу, Энрике Муноз, Дамиан Альказар, Жерардо Сублетт, Рик Кахана, Херардо Сепеда

Описание: Отправившись в отпуск на тропический курорт, Джек Хэзард уже начал отвыкать от напряженной жизни офицера нью — йоркского управления по борьбе с наркотиками, когда к нему за помощью обращается Гэри Стайнер, хакер, спасающийся от своего босса, Ллойда Уиллера, главаря опаснейшей международной преступной организации «белых воротничков». Хотя спасение жизни Стайнера — последнее, что нужно Джеку в жизни, но он все же вмешивается, и его захватывает круговорот событий.



Качество: DVDRip (Видеоряд с СГ)
Формат: AVI
Видео кодек: XviD
Аудио кодек: AC3
Видео: 608x448 (1.36:1), 25 fps, XviD Final 1.0.3 (build 37) ~1427 kbps avg, 0.21 bit/pixel
Аудио: 48 kHz, AC3 Dolby Digital, 2/0 (L,R) ch, ~192.00 kbps avg

Дорожка с Ю. Сербиным взята с VHSRip, выложенном на тру. Синхронизирована, ремастирована и наложена под данный видео ряд ale_x2008 при помощи Adobe Audition, Sony Vegas и VirtualDubMod.
Релиз является эксклюзивом для экс юа, при выкладывании на других ресурсах просьба указывать первоисточник и авторство.
Complete name : E:\INTERNET\Overkill.1996.DVDRip.[AVO](Serbin).avi
Format : AVI
Format/Info : Audio Video Interleave
File size : 1.05 GiB
Duration : 1h 31mn
Overall bit rate : 1 629 Kbps
Writing application : VirtualDubMod 1.5.10.3 (build 2550/release)
Writing library : VirtualDubMod build 2550/release

Video
ID : 0
Format : MPEG-4 Visual
Format profile : Simple@L3
Format settings, BVOP : Yes
Format settings, QPel : No
Format settings, GMC : No warppoints
Format settings, Matrix : Default (H.263)
Muxing mode : Packed bitstream
Codec ID : XVID
Codec ID/Hint : XviD
Duration : 1h 31mn
Bit rate : 1 428 Kbps
Width : 608 pixels
Height : 448 pixels
Display aspect ratio : 4:3
Frame rate : 25.000 fps
Color space : YUV
Chroma subsampling : 4:2:0
Bit depth : 8 bits
Scan type : Progressive
Bits/(Pixel*Frame) : 0.210
Stream size : 938 MiB (88%)
Writing library : XviD 1.0.3 (UTC 2004-12-20)

Audio
ID : 1
Format : AC-3
Format/Info : Audio Coding 3
Mode extension : CM (complete main)
Codec ID : 2000
Duration : 1h 31mn
Bit rate mode : Constant
Bit rate : 192 Kbps
Channel(s) : 2 channels
Channel positions : Front: L R
Sampling rate : 48.0 KHz
Bit depth : 16 bits
Stream size : 126 MiB (12%)
Alignment : Split accross interleaves
Interleave, duration : 40 ms (1.00 video frame)
Interleave, preload duration : 500 ms



Скачать Убить.любой.ценой.Overkill.(Дин.Рафаэль.Феррандини).[1996.Боевик.DVDRip].[AVO].(Ю.Сербин).torrent без регистрации
Золото ЗОЛОТАЯ РАЗДАЧА! СКАЧАННОЕ НЕ ЗАСЧИТЫВАЕТСЯ! Золото
Дата: Зарегистрирован   [ Тип: внутренний ] Как тут cкачать?
MAGNET ссылка
MAGNET ссылка


Скачать .torrent

11 KB

Статус: проверено DHT
Скачан: торрент - 129 раз, раздача полностью - 14 раз
Размер: 1,05 GB
Оценка:  5 (Голосов: 1)
Поблагодарили: 3
Поделиться ссылкой на эту раздачу с друзьями:
В контактеFacebookОдноклассникиTwitterLivejournalМой МирLiveinternet
 

 
Показать сообщения:    


Вы не можете начинать темы
Вы не можете отвечать на сообщения
Вы не можете редактировать свои сообщения
Вы не можете удалять свои сообщения
Вы не можете голосовать в опросах
Вы не можете прикреплять файлы к сообщениям
Вы можете скачивать файлы