Loading...
Error

Скачать Смерть на воде / Dead in the Water (Петр Узарович) [2006 г., ужасы, триллер, DVDRip] [AVO] (Дольский) торрент без регистрации

 
Статистика раздачи
Размер:  745 MB   |    Скачан:  117 раз
Сидов:  1  [  0 KB/s  ]  
 
Автор Сообщение

durik

[] 

Смерть на воде / Dead in the Water

Название: Смерть на воде
Оригинальное название: Dead in the Water
Год выхода: 2006
Жанр: ужасы, триллер
Режиссер: Петр Узарович
В ролях: Майкл Харрисон Бэйкер, Тони Бессон, Бекки Боксер, Гэйл Браун, Аарон Бьюэр, Джеймс С. Бёрнс, Эрик Кларк, Рени Дармиенто, Дженни Флойд, Тейлор Герард Харт

О фильме: (Описание от автора релиза DVD9) Две молодые дуры (одна тупая блондинка другая просто тупая) за 50 долларов проникают на закрытую вечеринку, где знакомятся с её организатором, верней это блондинка знакомится потому, что другую воопче пускать не хотели. Он даёт им приглашение на следующую ещё более закрытую и более развратную тусу, которая будет, проходит на снятой по этому поводу яхте. Вот там то, как вы, наверное, догадались из названия и будет происходить всё действие этой киноленты, которая мне лично больше напомнила одну из серий киноальманаха Дневник Плейбоя, чем фильм ужасов, тем более снятый на Троме. Кстати о яхте, существует легенда, что на ней некий миллионер убил свою жену, чтоб забрать страховку, вот, вокруг, этого и крутится весь сюжет. Пару эротических сцен и несколько банальных убийств, вот чем мне запомнилась эта киношка.

Страна: США
Студия: RPM Films, Wych Elm Films
Продолжительность: 01:24:25
Перевод: Авторский (одноголосый закадровый) Дольский

Кодек: Xvid / AVI
Качество: DVDRip
Видео: XviD 1.2.1, 720x400, 1032 kbps, 0,149 Bits/(Pixel*Frame)
Звук: AC3, 48 kHz, 192 kbps, 2 ch
Субтитры: Отсутствуют

Релиз от:

Автор рипа: Bathory
General
Complete name : H:Dead in the Water.2006.DVDRip.avi
Format : AVI
Format/Info : Audio Video Interleave
File size : 745 MiB
Duration : 1h 24mn
Overall bit rate : 1 234 Kbps
Writing application : VirtualDubMod 1.5.10.3 | www.virtualdub-fr.org || (build 2550/release)
Writing library : VirtualDubMod build 2550/release

Video
ID : 0
Format : MPEG-4 Visual
Format profile : Advanced Simple@L5
Format settings, BVOP : 3
Format settings, QPel : No
Format settings, GMC : No warppoints
Format settings, Matrix : Default (H.263)
Codec ID : XVID
Codec ID/Hint : XviD
Duration : 1h 24mn
Bit rate : 1 032 Kbps
Width : 720 pixels
Height : 400 pixels
Display aspect ratio : 16:9
Frame rate : 23.976 fps
Color space : YUV
Chroma subsampling : 4:2:0
Bit depth : 8 bits
Scan type : Progressive
Compression mode : Lossy
Bits/(Pixel*Frame) : 0.149
Stream size : 623 MiB (84%)
Writing library : XviD 1.2.1 (UTC 2008-12-04)

Audio
ID : 1
Format : AC-3
Format/Info : Audio Coding 3
Mode extension : CM (complete main)
Format settings, Endianness : Big
Codec ID : 2000
Duration : 1h 24mn
Bit rate mode : Constant
Bit rate : 192 Kbps
Channel(s) : 2 channels
Channel positions : Front: L R
Sampling rate : 48.0 KHz
Bit depth : 16 bits
Compression mode : Lossy
Stream size : 116 MiB (16%)
Alignment : Split accross interleaves
Interleave, duration : 42 ms (1.00 video frame)
Interleave, preload duration : 500 ms



Скачать Смерть.на.воде.Dead.in.the.Water.(Петр.Узарович).[2006.г.ужасы.триллер.DVDRip].[AVO].(Дольский).torrent без регистрации
Золото ЗОЛОТАЯ РАЗДАЧА! СКАЧАННОЕ НЕ ЗАСЧИТЫВАЕТСЯ! Золото
Дата: Зарегистрирован   [ Тип: внутренний ] Как тут cкачать?
MAGNET ссылка
MAGNET ссылка


Скачать .torrent

15 KB

Статус: проверено DHT
Скачан: торрент - 117 раз, раздача полностью - 9 раз
Размер: 745 MB
Оценка:  4 (Голосов: 1)
Поблагодарили: 3
Поделиться ссылкой на эту раздачу с друзьями:
В контактеFacebookОдноклассникиTwitterLivejournalМой МирLiveinternet
 

 

МихаНЕзатор

[] 

Отсутствуют рейтинги.
 
Показать сообщения:    


Вы не можете начинать темы
Вы не можете отвечать на сообщения
Вы не можете редактировать свои сообщения
Вы не можете удалять свои сообщения
Вы не можете голосовать в опросах
Вы не можете прикреплять файлы к сообщениям
Вы можете скачивать файлы