Loading...
Error

Скачать Враждебный пришелец / Alienator (Фред Олен Рэй) [1990 г., фантастика, боевик, DVDRip] [AVO] (В.Котов) торрент без регистрации

 
Статистика раздачи
Размер:  1,37 GB   |    Скачан:  135 раз
Сидов:  1  [  0 KB/s  ]  
 
Автор Сообщение

durik

[] 

Враждебный пришелец / Alienator

Название: Враждебный пришелец
Оригинальное название: Alienator
Год выхода: 1990
Жанр: фантастика, боевик
Режиссер: Фред Олен Рэй
В ролях: Ян-Майкл Винсент, Джон Филлип Ло, Росс Хэйген, Дайана Ортелли, Джесси Дэбсон, Доун Уайлдсмит, П.Дж. Соулз, Роберт Кларк, Ричард Уайли, Лео Гордон

О фильме:
Космический преступник Кол приговорен к смерти, тюремный комендант уже отдал все необходимые для уничтожения негодяя приказания, однако Колу удается в последний момент бежать на Землю. За ним вдогонку отправляют Alienator'а - крупную накачанную женщину в металлическом купальнике с лазерной пушкой и яркой прической. Оказавшись в какой-то глуши, Кол заручается поддержкой нескольких простых американцев, в том числе шерифа и престарелого вояки. Однако правильную ли сторону избрали люди в этом межпланетном конфликте?



Страна: США
Студия: Amazing Movies, American Independent Productions, Majestic International
Продолжительность: 01:32:30
Перевод: Авторский одноголосый (закадровый) В.Котов

Кодек: XviD / AVI
Качество: DVDRip
Видео: 720x368, 1719 kbps, 25 fps, 0,260 Bits/(Pixel*Frame)
Звук:
AC3, 48 kHz, 192 kbps, 2 ch - русский
AC3, 48 kHz, 192 kbps, 2 ch - english
Субтитры: Нет

Релиз от:

Автор рипа: Bathory
General
Complete name : H:Alienator.1990.DVDRip.avi
Format : AVI
Format/Info : Audio Video Interleave
File size : 1.37 GiB
Duration : 1h 32mn
Overall bit rate : 2 114 Kbps

Video
ID : 0
Format : MPEG-4 Visual
Format profile : Advanced Simple@L5
Format settings, BVOP : 2
Format settings, QPel : No
Format settings, GMC : No warppoints
Format settings, Matrix : Default (H.263)
Codec ID : XVID
Codec ID/Hint : XviD
Duration : 1h 32mn
Bit rate : 1 719 Kbps
Width : 720 pixels
Height : 368 pixels
Display aspect ratio : 1.957
Frame rate : 25.000 fps
Color space : YUV
Chroma subsampling : 4:2:0
Bit depth : 8 bits
Scan type : Progressive
Compression mode : Lossy
Bits/(Pixel*Frame) : 0.260
Stream size : 1.11 GiB (81%)
Writing library : XviD 1.2.1 (UTC 2008-12-04)

Audio #1
ID : 1
Format : AC-3
Format/Info : Audio Coding 3
Mode extension : CM (complete main)
Format settings, Endianness : Big
Codec ID : 2000
Duration : 1h 32mn
Bit rate mode : Constant
Bit rate : 192 Kbps
Channel(s) : 2 channels
Channel positions : Front: L R
Sampling rate : 48.0 KHz
Bit depth : 16 bits
Compression mode : Lossy
Stream size : 127 MiB (9%)
Alignment : Aligned on interleaves
Interleave, duration : 64 ms (1.60 video frames)
Interleave, preload duration : 192 ms
Title : VTS_02_1 T80 2_0ch 192Kbps DELAY 0ms_new

Audio #2
ID : 2
Format : AC-3
Format/Info : Audio Coding 3
Mode extension : CM (complete main)
Format settings, Endianness : Big
Codec ID : 2000
Duration : 1h 32mn
Bit rate mode : Constant
Bit rate : 192 Kbps
Channel(s) : 2 channels
Channel positions : Front: L R
Sampling rate : 48.0 KHz
Bit depth : 16 bits
Compression mode : Lossy
Stream size : 127 MiB (9%)
Alignment : Aligned on interleaves
Interleave, duration : 64 ms (1.60 video frames)
Interleave, preload duration : 192 ms
Title : VTS_02_1 T81 2_0ch 192Kbps DELAY 0ms_new



Скачать Враждебный.пришелец.Alienator.(Фред.Олен.Рэй).[1990.г.фантастика.боевик.DVDRip].[AVO].(В.Котов).torrent без регистрации
Золото ЗОЛОТАЯ РАЗДАЧА! СКАЧАННОЕ НЕ ЗАСЧИТЫВАЕТСЯ! Золото
Дата: Зарегистрирован   [ Тип: внутренний ] Как тут cкачать?
MAGNET ссылка
MAGNET ссылка


Скачать .torrent

14 KB

Статус: проверено DHT
Скачан: торрент - 135 раз, раздача полностью - 13 раз
Размер: 1,37 GB
Оценка:  - (Голосов: 0)
Поблагодарили: 4
Поделиться ссылкой на эту раздачу с друзьями:
В контактеFacebookОдноклассникиTwitterLivejournalМой МирLiveinternet
 

 
Показать сообщения:    


Вы не можете начинать темы
Вы не можете отвечать на сообщения
Вы не можете редактировать свои сообщения
Вы не можете удалять свои сообщения
Вы не можете голосовать в опросах
Вы не можете прикреплять файлы к сообщениям
Вы можете скачивать файлы