Loading...
Error

Скачать Моя жена и дети / My Wife and Kids (Полный 5-ый сезон) (Дон Рео, Деймон Вайанс) [2004-2005 гг., ситком, HDTVRip] [MVO] (FOX Life) торрент без регистрации

 
Статистика раздачи
Размер:  5 GB   |    Скачан:  121 раз
Сидов:  1  [  0 KB/s  ]  
 
Автор Сообщение

leon030982

[] 

Моя жена и дети / My Wife and Kids (Полный 5-ый сезон)



Годы выпуска: 2004-2005
Страна: США
Жанр: ситком
Продолжительность: 26x ~ 00:20:00
Перевод: Профессиональный (многоголосый, закадровый)[Fox Life]
Авторы сериала: Дон Рео, Деймон Вайанс

В ролях: Деймон Вайанс, Тиша Кемпбелл-Мартин, Джордж Гор II, Паркер МакКенна Пози, Дженнифер Николь Фриман

Описание: Майкл Кайл — сторонник патриархата, поэтому у него в доме царит особенный стиль управления. Он учит детей жизни с характерным только ему юмором и мудростью. Жене Майкла, Джанет, удается успевать везде — и заниматься домом, и строить карьеру, и обмениваться остротами с мужем. У них есть трое детей: Джуниор, которому частенько достается от остроумного и строгого папочки; дочка-подросток Клэр, у которой постоянно меняется настроение и вечно не хватает денег, и маленькая Кэди, которая редко позволяет папе сказать последнее слово.

Релиз
Над релизом работали:
shtange

Качество: HDTVRip
Формат: AVI
Видео кодек: XviD
Аудио кодек: MP3
Видео: 624x352 (1.77:1), 23.976 fps, XviD Final 1.0 (build 34) ~1014 kbps avg, 0.19 bit/pixel
Аудио RUS: MPEG Audio Layer 3 48000Hz stereo 128Kbps[MVO]
Аудио ENG: MPEG Audio Layer 3 48000Hz stereo 140Kbps[ENG]
В 1 и 2 сериях отсутствует перевод в следующих фрагментах:
18:20-19:00
19:06-19:12
19:17-20:02
На них идут субтитры

General
Complete name : E:\INTERNET\My Wife and Kids-5\My.Wife.and.Kids.s05e01-02.HDTVRip.Rus.Eng.1001cinema.avi
Format : AVI
Format/Info : Audio Video Interleave
File size : 391 MiB
Duration : 41mn 56s
Overall bit rate : 1 302 Kbps
Writing application : VirtualDubMod 1.5.10.2 (build 2540/release)
Writing library : VirtualDubMod build 2540/release

Video
ID : 0
Format : MPEG-4 Visual
Format profile : Advanced Simple@L5
Format settings, BVOP : No
Format settings, QPel : No
Format settings, GMC : No warppoints
Format settings, Matrix : Default (H.263)
Codec ID : XVID
Codec ID/Hint : XviD
Duration : 41mn 56s
Bit rate : 1 016 Kbps
Width : 624 pixels
Height : 352 pixels
Display aspect ratio : 16:9
Frame rate : 23.976 fps
Color space : YUV
Chroma subsampling : 4:2:0
Bit depth : 8 bits
Scan type : Progressive
Bits/(Pixel*Frame) : 0.193
Stream size : 305 MiB (78%)
Writing library : XviD 1.0.0 (UTC 2004-05-09)

Audio #1
ID : 1
Format : MPEG Audio
Format version : Version 1
Format profile : Layer 3
Mode : Joint stereo
Mode extension : MS Stereo
Codec ID : 55
Codec ID/Hint : MP3
Duration : 41mn 56s
Bit rate mode : Constant
Bit rate : 128 Kbps
Channel(s) : 2 channels
Sampling rate : 48.0 KHz
Stream size : 38.4 MiB (10%)
Alignment : Aligned on interleaves
Interleave, duration : 42 ms (1.00 video frame)
Interleave, preload duration : 504 ms

Audio #2
ID : 2
Format : MPEG Audio
Format version : Version 1
Format profile : Layer 3
Mode : Joint stereo
Codec ID : 55
Codec ID/Hint : MP3
Duration : 41mn 56s
Bit rate mode : Variable
Bit rate : 137 Kbps
Channel(s) : 2 channels
Sampling rate : 48.0 KHz
Stream size : 42.3 MiB (11%)
Alignment : Aligned on interleaves
Interleave, duration : 24 ms (0.58 video frame)
Interleave, preload duration : 438 ms
Writing library : LAME3.93
Encoding settings : -m j -V 4 -q 2 --abr 137
Финальный сезон сериала.
Несмотря на то, что 26 серия заканчивается весьма многообещающе, продолжение снято не было, сериал закрыли..



Скачать Моя.жена.и.дети.My.Wife.and.Kids.(Полный.5-ый.сезон).(Дон.Рео.Деймон.Вайанс).[2004-2005.гг.ситком.HDTVRip].[MVO].(FOX.Life).torrent без регистрации
Золото ЗОЛОТАЯ РАЗДАЧА! СКАЧАННОЕ НЕ ЗАСЧИТЫВАЕТСЯ! Золото
Дата: Зарегистрирован   [ Тип: внутренний ] Как тут cкачать?
MAGNET ссылка
MAGNET ссылка


Скачать .torrent

28 KB

Статус: проверено DHT
Скачан: торрент - 121 раз, раздача полностью - 85 раз
Размер: 5 GB
Оценка:  5 (Голосов: 1)
Поблагодарили: 2
Поделиться ссылкой на эту раздачу с друзьями:
В контактеFacebookОдноклассникиTwitterLivejournalМой МирLiveinternet
 

 
Показать сообщения:    


Вы не можете начинать темы
Вы не можете отвечать на сообщения
Вы не можете редактировать свои сообщения
Вы не можете удалять свои сообщения
Вы не можете голосовать в опросах
Вы не можете прикреплять файлы к сообщениям
Вы можете скачивать файлы