Loading...
Error

Скачать Беглец / The Fugitive (Эндрю Дэвис /Andrew Davis) [1993, триллер, детектив, боевик, HDDVDRip-AVC] [AVO] (Ю.Живов) + [AVO] (А.Гаврилов) + [MVO] (НТВ) торрент без регистрации

 
Статистика раздачи
Размер:  2,16 GB   |    Скачан:  152 раза
Сидов:  1  [  0 KB/s  ]  
 
Автор Сообщение

leon030982

[] 

Беглец / The Fugitive


Год выпуска: 1993
Страна: США
Жанр: триллер, детектив, боевик
Продолжительность: 02:10:14
Перевод#1: Авторский (одноголосный)[Ю.Живов]
Перевод#2: Авторский (одноголосный)[А.Гаврилов)
Перевод#3: Профессиональный (многоголосный, закадровый)[НТВ]
Cубтитры: русские, английские

Режиссер: Эндрю Дэвис /Andrew Davis

В ролях: Харрисон Форд, Томми Ли Джонс, Села Уорд, Джулианна Мур, Джо Пантолиано, Андреас Катсулас, Джероен Краббе, Дэниэл Робак, Л. Скотт Колдуэлл, Том Вуд

Описание: Убитая жена. Однорукий мужчина. Одержимый детектив. Преследование начинается. Доктор Ричард Кимбл, чикагский хирург, ложно обвинен в убийстве своей жены.
Полный решимости доказать свою невиновность, доктор совершает побег из тюрьмы. Он хочет сам привести своих преследователей — служителей закона — к настоящему убийце.



Качество видео: HDDVDRip-AVC [Исх.HD-DVD]
Формат видео: MKV
Видео кодек: h.264
Аудио кодек: AC-3
Видео: MPEG4/ISO/AVC, 1128x640 (4:2:0), 23.976 fps, 1800kbps, 0.104 Bits/(Pixel*Frame)
Аудио#1: AC-3, 2ch, 48KHz, 192kbps[Ю.Живов]
Аудио#2: AC-3, 2ch, 48KHz, 192kbps[А.Гаврилов]
Аудио#3: AC-3, 2ch, 48KHz, 192kbps[MVO] (НТВ)]
Навигация по главам: есть

Благодарности:
Видео ряд от seeker05, исходники авторских дорог взяты с EX из релиза VegA.
Дорожка НТВ позаимствована из раздачи viktor1986t,за что его и благодарим!
General
Complete name : E:\INTERNET\The Fugitive.1993.HDDVDRip-AVC.2x[AVO]+[MVO HTB]+[2xSub].mkv
Format : Matroska
File size : 2.16 GiB
Duration : 2h 10mn
Overall bit rate : 2 376 Kbps
Encoded date : UTC 2013-09-15 15:42:04
Writing application : mkvmerge v4.2.0 ('No Talking') сборка от Jul 28 2010 18:38:23
Writing library : libebml v1.0.0 + libmatroska v1.0.0

Video
ID : 1
Format : AVC
Format/Info : Advanced Video Codec
Format profile : High@L4.0
Format settings, CABAC : Yes
Format settings, ReFrames : 11 frames
Muxing mode : Container profile=Unknown@4.0
Codec ID : V_MPEG4/ISO/AVC
Duration : 2h 10mn
Bit rate : 1 800 Kbps
Width : 1 128 pixels
Height : 640 pixels
Display aspect ratio : 16:9
Frame rate : 23.976 fps
Color space : YUV
Chroma subsampling : 4:2:0
Bit depth : 8 bits
Scan type : Progressive
Bits/(Pixel*Frame) : 0.104
Stream size : 1.59 GiB (74%)
Title : The Fugitive.(2XAVO)+(MVO HTB)
Writing library : x264 core 120 r2146 bcd41db
Encoding settings : cabac=1 / ref=11 / deblock=1:-2:-1 / analyse=0x3:0x133 / me=umh / subme=9 / psy=1 / psy_rd=1.00:0.15 / mixed_ref=1 / me_range=24 / chroma_me=1 / trellis=2 / 8x8dct=1 / cqm=0 / deadzone=21,11 / fast_pskip=1 / chroma_qp_offset=-3 / threads=6 / sliced_threads=0 / nr=0 / decimate=1 / interlaced=0 / bluray_compat=0 / constrained_intra=0 / bframes=8 / b_pyramid=2 / b_adapt=2 / b_bias=0 / direct=3 / weightb=1 / open_gop=0 / weightp=2 / keyint=240 / keyint_min=23 / scenecut=40 / intra_refresh=0 / rc_lookahead=60 / rc=2pass / mbtree=1 / bitrate=1800 / ratetol=1.0 / qcomp=0.60 / qpmin=0 / qpmax=69 / qpstep=4 / cplxblur=20.0 / qblur=0.5 / ip_ratio=1.40 / aq=1:1.00

Audio #1
ID : 2
Format : AC-3
Format/Info : Audio Coding 3
Mode extension : CM (complete main)
Codec ID : A_AC3
Duration : 2h 10mn
Bit rate mode : Constant
Bit rate : 192 Kbps
Channel(s) : 2 channels
Channel positions : Front: L R
Sampling rate : 48.0 KHz
Bit depth : 16 bits
Stream size : 179 MiB (8%)
Title : AVO(Jyvov)
Language : Russian

Audio #2
ID : 3
Format : AC-3
Format/Info : Audio Coding 3
Mode extension : CM (complete main)
Codec ID : A_AC3
Duration : 2h 10mn
Bit rate mode : Constant
Bit rate : 192 Kbps
Channel(s) : 2 channels
Channel positions : Front: L R
Sampling rate : 48.0 KHz
Bit depth : 16 bits
Stream size : 179 MiB (8%)
Title : AVO(Gavrilov)
Language : Russian

Audio #3
ID : 4
Format : AC-3
Format/Info : Audio Coding 3
Mode extension : CM (complete main)
Codec ID : A_AC3
Duration : 2h 10mn
Bit rate mode : Constant
Bit rate : 192 Kbps
Channel(s) : 2 channels
Channel positions : Front: L R
Sampling rate : 48.0 KHz
Bit depth : 16 bits
Stream size : 179 MiB (8%)
Title : HTB
Language : Russian

Text #1
ID : 5
Format : UTF-8
Codec ID : S_TEXT/UTF8
Codec ID/Info : UTF-8 Plain Text
Title : ENG.SRT

Text #2
ID : 6
Format : UTF-8
Codec ID : S_TEXT/UTF8
Codec ID/Info : UTF-8 Plain Text
Title : RUS.SRT
Language : Russian

Menu
00:00:00.000 : en:01. Murder Most Brutal
00:04:49.414 : en:02. "You Find This Man!"
00:09:38.912 : en:03. Trial and Sentencing
00:12:57.735 : en:04. The Bus to Menard
00:14:49.555 : en:05. Out of Control
00:16:34.702 : en:06. Train Coming
00:18:52.298 : en:07. "Just Don't Follow Me"
00:20:19.969 : en:08. Gerard Takes Charge
00:23:08.262 : en:09. Your Fugitive's Name
00:25:34.032 : en:10. Teamwork
00:26:29.588 : en:11. "Every Time I Look..."
00:29:46.284 : en:12. Instant Diagnosis
00:31:25.717 : en:13. Overhead Pursuit
00:34:21.935 : en:14. Underground Pursuit
00:36:44.953 : en:15. "I Didn't Kill My Wife"
00:38:02.572 : en:16. Taking the Plunge
00:39:41.754 : en:17. River Search
00:42:18.870 : en:18. Bad Dreams; a New Look
00:45:34.732 : en:19. Raid on House
00:48:35.037 : en:20. "I Don't Bargain"
00:50:06.170 : en:21. Back in Chicago
00:53:26.537 : en:22. Meeting Nichols
00:56:00.649 : en:23. Cook County Hospital
00:59:19.931 : en:24. Background Checks
01:02:52.602 : en:25. House Under Siege
01:07:44.269 : en:26. Practicing Medicine
01:13:49.300 : en:27. Interest in Prosthetics
01:15:41.370 : en:28. Visiting Clive Driscoll
01:19:16.251 : en:29. Face to Face
01:21:53.867 : en:30. Luck of the Irsh
01:24:42.619 : en:31. Breaking and Entering
01:29:46.923 : en:32. Big Piece of the Puzzle
01:35:26.387 : en:33. "It Was Me..."
01:36:58.855 : en:34. Over This Ground Before
01:40:53.047 : en:35. Someone with Access
01:44:24.091 : en:36. Marked Man on the El
01:50:03.972 : en:37. An Interrupted Speech
01:54:43.085 : en:38. Mayhem on the Roof
01:58:28.059 : en:39. Stalkers in the Laundry
02:02:41.563 : en:40. Time to Stop Running
02:04:04.812 : en:41. Their Secret
02:05:50.251 : en:42. End Credits



Скачать Беглец.The.Fugitive.(Эндрю.Дэвис.Andrew.Davis).[1993.триллер.детектив.боевик.HDDVDRip-AVC].[AVO].(Ю.Живов).+.[AVO].(А.Гаврилов).+.[MVO].(НТВ).torrent без регистрации
Золото ЗОЛОТАЯ РАЗДАЧА! СКАЧАННОЕ НЕ ЗАСЧИТЫВАЕТСЯ! Золото
Дата: Зарегистрирован   [ Тип: внутренний ] Как тут cкачать?
MAGNET ссылка
MAGNET ссылка


Скачать .torrent

11 KB

Статус: проверено DHT
Скачан: торрент - 152 раз, раздача полностью - 2 раз
Размер: 2,16 GB
Оценка:  5 (Голосов: 1)
Поблагодарили: 2
Поделиться ссылкой на эту раздачу с друзьями:
В контактеFacebookОдноклассникиTwitterLivejournalМой МирLiveinternet
 

 
Показать сообщения:    


Вы не можете начинать темы
Вы не можете отвечать на сообщения
Вы не можете редактировать свои сообщения
Вы не можете удалять свои сообщения
Вы не можете голосовать в опросах
Вы не можете прикреплять файлы к сообщениям
Вы можете скачивать файлы