Loading...
Error

Скачать Цепная реакция / Chain Reaction (Эндрю Дэвис) [1996, фантастика, боевик, триллер, драма, HDRip-AVC] [MVO] + [AVO] (П. Карцев) торрент без регистрации

 
Статистика раздачи
Размер:  1,45 GB   |    Скачан:  151 раз
Сидов:  1  [  0 KB/s  ]  
 
Автор Сообщение

leon030982

[] 

Цепная реакция / Chain Reaction



Год выхода: 1996
Жанр: фантастика, боевик, триллер, драма
Страна: США
Продолжительность: 01:46:38
Перевод#1: Профессиональный (многоголосый закадровый)
Перевод#2: Авторский (одноголосый, закадровый)[П. Карцев]
Оригинальная дорожка: английский

Режиссер: Эндрю Дэвис

В ролях: Киану Ривз, Морган Фриман, Рейчел Вайс, Фред Уорд, Кевин Данн, Брайан Кокс, Джоанна Кэссиди, Челси Росс, Николас Радэлл, Ци Ма

О фильме: Недалекое будущее. Планета задыхается от экологического кризиса. Группа исследователей во главе с профессором Алистером Бэркли разрабатывает спасительную технологию получения водорода из воды в качестве источника энергии.
Неизвестные лица крадут документы по разработкам, а профессор погибает в результате «несчастного» случая. ФБР подозревает во всем молодых ученых, которые работали в группе профессора. Начинается напряженная борьба за выживание, и на карту поставлены не только честь и свобода



Качество: HDRip-AVC
Формат: MKV
Видео кодек: x.264
Аудио кодек AC3
Видео: MPEG4/ISO/AVC, 1024x560 (1,85:1), 23,976 fps, 1435 kbps, 0.104 bit/pixel
Аудио #1: 48 kHz, AC3 Dolby Digital, 2 ch, ~192.00 kbps (Многоголосый)
Аудио #2: 48 kHz, AC3 Dolby Digital, 2 ch, ~192.00 kbps (П. Карцев)
Аудио #3: 48 kHz, AC3 Dolby Digital, 2 ch, ~128.00 kbps (Оригинал)
Субтитры: Русские, Английские (отключаемые)

&
Общее
Уникальный идентификатор : 205017569891881505862248730661742600265 (0x9A3CF29C5683B534B89A725EA7426049)
Полное имя : D:Chain Reaction.1996.HDRip-AVC.mkv
Формат : Matroska
Версия формата : Version 4 / Version 2
Размер файла : 1,45 Гбайт
Продолжительность : 1 ч. 46 м.
Общий поток : 1949 Кбит/сек
Название фильма : Цепная реакция / Chain Reaction (1996) HDRip-AVC rip by Rulya74
Дата кодирования : UTC 2013-08-11 20:21:39
Программа кодирования : mkvmerge v6.2.0 ('Promised Land') built on Apr 28 2013 12:22:01
Библиотека кодирования : libebml v1.3.0 + libmatroska v1.4.0

Видео
Идентификатор : 1
Формат : AVC
Формат/Информация : Advanced Video Codec
Профиль формата : High@L4.1
Параметр CABAC формата : Да
Параметр ReFrames формата : 9 кадров
Идентификатор кодека : V_MPEG4/ISO/AVC
Продолжительность : 1 ч. 46 м.
Битрейт : 1435 Кбит/сек
Ширина : 1024 пикселя
Высота : 560 пикселей
Соотношение сторон : 1,85:1
Режим частоты кадров : Постоянный
Частота кадров : 23,976 кадра/сек
Цветовое пространство : YUV
Субдискретизация насыщенности : 4:2:0
Битовая глубина : 8 бит
Тип развёртки : Прогрессивная
Бит/(Пиксели*Кадры) : 0.104
Размер потока : 1,04 Гбайт (72%)
Библиотека кодирования : x264 core 133 r2334 a3ac64b
Настройки программы : cabac=1 / ref=9 / deblock=1:-1:-1 / analyse=0x3:0x113 / me=umh / subme=9 / psy=1 / psy_rd=1.06:0.01 / mixed_ref=1 / me_range=32 / chroma_me=1 / trellis=2 / 8x8dct=1 / cqm=0 / deadzone=21,11 / fast_pskip=0 / chroma_qp_offset=-3 / threads=6 / lookahead_threads=1 / sliced_threads=0 / nr=0 / decimate=1 / interlaced=0 / bluray_compat=0 / constrained_intra=0 / bframes=6 / b_pyramid=2 / b_adapt=1 / b_bias=0 / direct=3 / weightb=1 / open_gop=0 / weightp=2 / keyint=240 / keyint_min=23 / scenecut=40 / intra_refresh=0 / rc_lookahead=40 / rc=2pass / mbtree=1 / bitrate=1435 / ratetol=1.0 / qcomp=0.60 / qpmin=0 / qpmax=69 / qpstep=4 / cplxblur=20.0 / qblur=0.5 / vbv_maxrate=62500 / vbv_bufsize=78125 / nal_hrd=none / ip_ratio=1.40 / aq=1:1.00
Default : Да
Forced : Нет

Аудио #1
Идентификатор : 2
Формат : AC-3
Формат/Информация : Audio Coding 3
Расширение режима : CM (complete main)
Параметр Endianness формата : Big
Идентификатор кодека : A_AC3
Продолжительность : 1 ч. 46 м.
Вид битрейта : Постоянный
Битрейт : 192 Кбит/сек
Каналы : 2 канала
Расположение каналов : Front: L R
Частота : 48,0 КГц
Битовая глубина : 16 бит
Метод сжатия : С потерями
Размер потока : 146 Мбайт (10%)
Заголовок : Профессиональный (многоголосый закадровый)
Язык : Russian
Default : Да
Forced : Нет

Аудио #2
Идентификатор : 3
Формат : AC-3
Формат/Информация : Audio Coding 3
Расширение режима : CM (complete main)
Параметр Endianness формата : Big
Идентификатор кодека : A_AC3
Продолжительность : 1 ч. 46 м.
Вид битрейта : Постоянный
Битрейт : 192 Кбит/сек
Каналы : 2 канала
Расположение каналов : Front: L R
Частота : 48,0 КГц
Битовая глубина : 16 бит
Метод сжатия : С потерями
Размер потока : 146 Мбайт (10%)
Заголовок : Авторский (П. Карцев)
Язык : Russian
Default : Нет
Forced : Нет

Аудио #3
Идентификатор : 4
Формат : AC-3
Формат/Информация : Audio Coding 3
Расширение режима : CM (complete main)
Параметр Endianness формата : Big
Идентификатор кодека : A_AC3
Продолжительность : 1 ч. 46 м.
Вид битрейта : Постоянный
Битрейт : 128 Кбит/сек
Каналы : 2 канала
Расположение каналов : Front: L R
Частота : 48,0 КГц
Битовая глубина : 16 бит
Метод сжатия : С потерями
Размер потока : 97,6 Мбайт (7%)
Заголовок : Оригинал
Язык : English
Default : Нет
Forced : Нет

Текст #1
Идентификатор : 5
Формат : UTF-8
Идентификатор кодека : S_TEXT/UTF8
Идентификатор кодека/Информация : UTF-8 Plain Text
Язык : Russian
Default : Да
Forced : Нет

Текст #2
Идентификатор : 6
Формат : UTF-8
Идентификатор кодека : S_TEXT/UTF8
Идентификатор кодека/Информация : UTF-8 Plain Text
Язык : English
Default : Нет
Forced : Нет



Скачать Цепная.реакция.Chain.Reaction.(Эндрю.Дэвис).[1996.фантастика.боевик.триллер.драма.HDRip-AVC].[MVO].+.[AVO].(П.Карцев).torrent без регистрации
Золото ЗОЛОТАЯ РАЗДАЧА! СКАЧАННОЕ НЕ ЗАСЧИТЫВАЕТСЯ! Золото
Дата: Зарегистрирован   [ Тип: внутренний ] Как тут cкачать?
MAGNET ссылка
MAGNET ссылка


Скачать .torrent

15 KB

Статус: проверено DHT
Скачан: торрент - 151 раз, раздача полностью - 118 раз
Размер: 1,45 GB
Оценка:  5 (Голосов: 2)
Поблагодарили: 4
Поделиться ссылкой на эту раздачу с друзьями:
В контактеFacebookОдноклассникиTwitterLivejournalМой МирLiveinternet
 

 
Показать сообщения:    


Вы не можете начинать темы
Вы не можете отвечать на сообщения
Вы не можете редактировать свои сообщения
Вы не можете удалять свои сообщения
Вы не можете голосовать в опросах
Вы не можете прикреплять файлы к сообщениям
Вы можете скачивать файлы