Loading...
Error

Скачать Мой любимый марсианин / My Favorite Martian (Дональд Петри) [1999, фантастика, комедия, семейный, WEB-DLRip] [Dub (лицензия iTunes)] торрент без регистрации

 
Статистика раздачи
Размер:  1,45 GB   |    Скачан:  186 раз
Сидов:  1  [  0 KB/s  ]  
 
Автор Сообщение

МихаНЕзатор

[] 

Информация о фильме
Название: Мой любимый марсианин
Оригинальное название: My Favorite Martian
Год выхода: 1999
Жанр: фантастика, комедия, семейный
Режиссер: Дональд Питри

В ролях: Кристофер Ллойд, Джефф Дэниелс, Элизабет Херли, Дэрил Ханна, Уоллес Шоун, Кристин Эберсоул, Майкл Лернер, Рей Уолстон, Шелли Мэлил, Джереми Хотц

О фильме: Веселые приключения начались в тот день, когда честолюбивый репортер Тим О`Хара наткнулся на марсианина, который только что совершил вынужденную посадку на землю. Поняв, что в его руки попал самый сенсационный материал за всю историю человечества, Тим замышляет разоблачить марсианина, принявшего человеческий облик под именем «дяди Мартина».

Однако невероятные проделки «дядюшки» неизменно срывают планы Тима, и тогда он принимает решение помочь изобретательному инопланетянину вернуться домой. Но сделать это не так - то просто: электронный ускоритель звездолета сломан, а власти вот - вот схватят Мартина. Успеет ли корабль взлететь вовремя?



Страна: США
Продолжительность: 01:33:52
Перевод: Профессиональный (полное дублирование)|Дубляж, iTunes Russia|
Автор рипа: Odessit

Файл
Кодек: XviD build 73
Качество: WEB-DLRip (WEB-DL (720p)
Видео: 720x400 (1.80:1), 23.976 fps, XviD build 73 ~1819 kbps avg, 0.26 bit/pixel
Звук: 48 kHz, AC3 Dolby Digital, 3/2 (L,C,R,l,r) + LFE ch, ~384 kbps

АНОНСЫ ПОПУЛЯРНЫХ РАЗДАЧ


Торрент обновлён, улучшен видеоряд!
Формат : AVI
Формат/Информация : Audio Video Interleave
Размер файла : 1,45 Гбайт
Продолжительность : 1 ч. 33 м.
Общий поток : 2212 Кбит/сек
Название фильма : My.Favorite.Martian.1999.WEB-DL.Rp
Режиссёр : Odessit
Программа кодирования : VirtualDubMod 1.5.10.3 (build 2550/release)
Библиотека кодирования : VirtualDubMod build 2550/release

Видео
Идентификатор : 0
Формат : MPEG-4 Visual
Профиль формата : Advanced Simple@L5
Параметр BVOP формата : 1
Параметр QPel формата : Нет
Параметр GMC формата : Без точки перехода
Параметр матрицы формата : Выборочная
Идентификатор кодека : XVID
Идентификатор кодека/Подсказка : XviD
Продолжительность : 1 ч. 33 м.
Битрейт : 1820 Кбит/сек
Ширина : 720 пикселей
Высота : 400 пикселей
Соотношение сторон : 16:9
Частота кадров : 23,976 кадра/сек
Цветовое пространство : YUV
Субдискретизация насыщенности : 4:2:0
Битовая глубина : 8 бит
Тип развёртки : Прогрессивная
Метод сжатия : С потерями
Бит/(Пиксели*Кадры) : 0.264
Размер потока : 1,19 Гбайт (82%)
Библиотека кодирования : XviD 73

Аудио
Идентификатор : 1
Формат : AC-3
Формат/Информация : Audio Coding 3
Расширение режима : CM (complete main)
Параметр Endianness формата : Big
Идентификатор кодека : 2000
Продолжительность : 1 ч. 33 м.
Вид битрейта : Постоянный
Битрейт : 384 Кбит/сек
Каналы : 6 каналов
Расположение каналов : Front: L C R, Side: L R, LFE
Частота : 48,0 КГц
Битовая глубина : 16 бит
Метод сжатия : С потерями
Размер потока : 257 Мбайт (17%)
Выравнивание : Разделение по промежуткам
Продолжительность промежутка : 42 мс. (1,00 видеокадр)
Время предзагрузки промежутка : 500 мс.
Сравнения с DVDRip



Скачать Мой.любимый.марсианин.My.Favorite.Martian.(Дональд.Петри).[1999.фантастика.комедия.семейный.WEB-DLRip].[Dub.(лицензия.iTunes)].torrent без регистрации
Золото ЗОЛОТАЯ РАЗДАЧА! СКАЧАННОЕ НЕ ЗАСЧИТЫВАЕТСЯ! Золото
Дата: Зарегистрирован   [ Тип: внутренний ] Как тут cкачать?
MAGNET ссылка
MAGNET ссылка


Скачать .torrent

15 KB

Статус: проверено DHT
Скачан: торрент - 186 раз, раздача полностью - 13 раз
Размер: 1,45 GB
Оценка:  5 (Голосов: 3)
Поблагодарили: 4
Поделиться ссылкой на эту раздачу с друзьями:
В контактеFacebookОдноклассникиTwitterLivejournalМой МирLiveinternet
 

 
Показать сообщения:    


Вы не можете начинать темы
Вы не можете отвечать на сообщения
Вы не можете редактировать свои сообщения
Вы не можете удалять свои сообщения
Вы не можете голосовать в опросах
Вы не можете прикреплять файлы к сообщениям
Вы можете скачивать файлы