Loading...
Error

Скачать Молот богов / Hammer of the Gods (Тодор Чапканов / Todor Chapkanov) [2009, боевик, драма, приключени, HDRip] торрент без регистрации

 
Статистика раздачи
Размер:  1,37 GB   |    Скачан:  169 раз
Сидов:  1  [  0 KB/s  ]  
 
Автор Сообщение

МихаНЕзатор

[] 

Молот богов / Hammer of the Gods


Страна: США
Жанр: боевик, драма, приключени
Год выпуска: 2009
Продолжительность: 01:22:39

Перевод: Профессиональный (многоголосый закадровый) [ТВ3]
Cубтитры: нет
Оригинальная аудиодорожка: английский

Режиссер: Тодор Чапканов / Todor Chapkanov
В ролях: Закари Ти Брайан, Мак Брандт, Дэз Кроуфорд, Рафаэль Джордан, Джон Ласковски, Мелисса Ли, Христо Митцков, Велислав Павлов, Алексис Питерс

Описание: В поисках нового пристанища, отряд викингов под предводительством отважного Тора попадает на загадочный остров, населенный оборотнями. В надежде победить чудовищ, Тор отправляется на поиски легендарного молота богов, являющегося ему в пророческих видениях…



Качество видео: HDRip [Hammer.of.the.Gods.2009.720p.BluRay.x264-DON]
Формат видео: AVI
Видео: 720x400 (1.80:1), 25 fps, XviD build 50 ~1977 kbps avg, 0.27 bit/pixel
Аудио: 48 kHz, AC3 Dolby Digital, 2/0 (L,R) ch, ~192.00 kbps avg [rus]
Аудио 2: 48 kHz, AC3 Dolby Digital, 2/0 (L,R) ch, ~192.00 kbps avg [eng]

General
Complete name : Hammer.of.the.Gods.2009.P.HDRip.[uniongang.tv].avi
Format : AVI
Format/Info : Audio Video Interleave
File size : 1.37 GiB
Duration : 1h 22mn
Overall bit rate : 2 376 Kbps
Writing application : VirtualDubModRus 1.5.10.2 (build 2542/release)
Writing library : VirtualDubMod build 2542/release

Video
ID : 0
Format : MPEG-4 Visual
Format profile : Advanced Simple@L5
Format settings, BVOP : 2
Format settings, QPel : No
Format settings, GMC : No warppoints
Format settings, Matrix : Custom
Codec ID : XVID
Codec ID/Hint : XviD
Duration : 1h 22mn
Bit rate : 1 978 Kbps
Width : 720 pixels
Height : 400 pixels
Display aspect ratio : 16:9
Frame rate : 25.000 fps
Color space : YUV
Chroma subsampling : 4:2:0
Bit depth : 8 bits
Scan type : Progressive
Compression mode : Lossy
Bits/(Pixel*Frame) : 0.275
Stream size : 1.14 GiB (83%)
Writing library : XviD 1.2.1 (UTC 2008-12-04)

Audio #1
ID : 1
Format : AC-3
Format/Info : Audio Coding 3
Mode extension : CM (complete main)
Codec ID : 2000
Duration : 1h 22mn
Bit rate mode : Constant
Bit rate : 192 Kbps
Channel(s) : 2 channels
Channel positions : Front: L R
Sampling rate : 48.0 KHz
Bit depth : 16 bits
Compression mode : Lossy
Stream size : 113 MiB (8%)
Alignment : Split accross interleaves
Interleave, duration : 40 ms (1.00 video frame)
Interleave, preload duration : 500 ms

Audio #2
ID : 2
Format : AC-3
Format/Info : Audio Coding 3
Mode extension : CM (complete main)
Codec ID : 2000
Duration : 1h 22mn
Bit rate mode : Constant
Bit rate : 192 Kbps
Channel(s) : 6 channels
Channel positions : Front: L C R, Side: L R, LFE
Sampling rate : 48.0 KHz
Bit depth : 16 bits
Compression mode : Lossy
Stream size : 114 MiB (8%)
Alignment : Split accross interleaves
Interleave, duration : 40 ms (1.00 video frame)
Interleave, preload duration : 500 ms



Скачать Молот.богов.Hammer.of.the.Gods.(Тодор.Чапканов.Todor.Chapkanov).[2009.боевик.драма.приключени.HDRip].torrent без регистрации
Золото ЗОЛОТАЯ РАЗДАЧА! СКАЧАННОЕ НЕ ЗАСЧИТЫВАЕТСЯ! Золото
Дата: Зарегистрирован   [ Тип: внутренний ] Как тут cкачать?
MAGNET ссылка
MAGNET ссылка


Скачать .torrent

14 KB

Статус: проверено DHT
Скачан: торрент - 169 раз, раздача полностью - 74 раз
Размер: 1,37 GB
Оценка:  4,5 (Голосов: 2)
Поблагодарили: 4
Поделиться ссылкой на эту раздачу с друзьями:
В контактеFacebookОдноклассникиTwitterLivejournalМой МирLiveinternet
 

 
Показать сообщения:    


Вы не можете начинать темы
Вы не можете отвечать на сообщения
Вы не можете редактировать свои сообщения
Вы не можете удалять свои сообщения
Вы не можете голосовать в опросах
Вы не можете прикреплять файлы к сообщениям
Вы можете скачивать файлы