Loading...
Error

Скачать Все лучшее в тебе / What I Like About You (Сезон 1, эпизод 1-22(22)) [2002 г., комедия, DVDRip] торрент без регистрации

Статистика раздачи
Размер:  4,21 GB   |    Скачан:  184 раза
Сидов:  1  [  0 KB/s  ]  

 
 
 
Автор Сообщение

maxcross

[] 

Все лучшее в тебе / What I Like About You

Год выпуска: 2002
Страна: США

Жанр: Комедия
Продолжительность: ~20 мин
Перевод: Профессиональный многоголосый закадровый(MTV)
Субтитры: нет
Режиссер: Гэри Хэрлворсон
В ролях:
Аманда Байнс, Дженни Гарт, Уэсли Джонатан, Саймон Рекс

Описание:
После того, как отец 16-летней Холли и 28-летней Валери едет работать в Японию, старшей сестре приходится присматривать за своей неудачливой младшей. Налаженная жизнь, многообещающая карьера, деловые связи и отношения с мужчинами начинают рушиться прямо на глазах. И Холли, и Валери приходится ко многому привыкать, практически начиная жизнь заново, чтобы приспособиться друг к другу.

Качество: DVDRip
Формат: AVI

Видео кодек: XviD
Аудио кодек: MP3
Видео: 576x432 (1.77:1), 23.976 fps, XviD 1.2 beta 1 (build 43) ~968 kbps avg, 0.20 bit/pixel
Аудио Rus: 48 kHz, MPEG Layer 3, 2 ch, ~128.00 kbps avg
Аудио Eng: 48 kHz, MPEG Layer 3, 2 ch, ~128.00 kbps avg
Релиз:

Звук предоставил:
Cherry, koss, shel
Работа со звуком: Cherry




General

Complete name : H:\Фтп 3\Сериалы\Все лучшее в тебе(What I Like About You)\What I Like About You Season 1\what.i.like.about.you.s01e01.dvdrip.rus.eng.newstudio.tv.avi
Format : AVI
Format/Info : Audio Video Interleave
File size : 196 MiB
Duration : 21mn 58s
Overall bit rate : 1 244 Kbps
Writing application : VirtualDubMod 1.5.10.2 (build 2542/release)
Writing library : VirtualDubMod build 2542/release

Video

ID : 0
Format : MPEG-4 Visual
Format profile : Advanced Simple@L5
Format settings, BVOP : Yes
Format settings, QPel : No
Format settings, GMC : No warppoints
Format settings, Matrix : Default (H.263)
Muxing mode : Packed bitstream
Codec ID : XVID
Codec ID/Hint : XviD
Duration : 21mn 58s
Bit rate : 968 Kbps
Width : 576 pixels
Height : 432 pixels
Display aspect ratio : 4:3
Frame rate : 23.976 fps
Color space : YUV
Chroma subsampling : 4:2:0
Bit depth : 8 bits
Scan type : Progressive
Bits/(Pixel*Frame) : 0.162
Stream size : 152 MiB (78%)
Writing library : XviD 1.1.0 (UTC 2005-11-22)

Audio #1
ID : 1
Format : MPEG Audio
Format version : Version 1
Format profile : Layer 3
Mode : Joint stereo
Mode extension : MS Stereo
Codec ID : 55
Codec ID/Hint : MP3
Duration : 21mn 58s
Bit rate mode : Constant
Bit rate : 128 Kbps
Channel(s) : 2 channels
Sampling rate : 48.0 KHz
Stream size : 20.1 MiB (10%)
Alignment : Aligned on interleaves
Interleave, duration : 42 ms (1.00 video frame)
Interleave, preload duration : 504 ms

Audio #2
ID : 2
Format : MPEG Audio
Format version : Version 1
Format profile : Layer 3
Mode : Joint stereo
Codec ID : 55
Codec ID/Hint : MP3
Duration : 21mn 58s
Bit rate mode : Variable
Bit rate : 128 Kbps
Channel(s) : 2 channels
Sampling rate : 48.0 KHz
Video delay : 8ms
Stream size : 20.5 MiB (10%)
Alignment : Aligned on interleaves
Interleave, duration : 24 ms (0.58 video frame)
Interleave, preload duration : 394 ms
Writing library : LAME3.96.1

Pilot
Spa Day
Roommates
The Teddy Bear
Cool Older Sister
The Parrot Trap
Tankini
Copy That
Thanksgiving
The Party
The Other Woman
Girls Night Out
The Cheerleading Incident
The Game
Valentine's Day
Holly's First Job
The Breakup
Dude, Where's Val's Car?
Loose Lips
The Fix Up
Tyler v. World
The Talk




Скачать Все.лучшее.в.тебе.What.I.Like.About.You.(Сезон.1.эпизод.1-22(22)).[2002.г.комедия.DVDRip].torrent без регистрации
Золото ЗОЛОТАЯ РАЗДАЧА! СКАЧАННОЕ НЕ ЗАСЧИТЫВАЕТСЯ! Золото
Дата: Зарегистрирован   [ Тип: внутренний ] Как тут cкачать?
MAGNET ссылка
MAGNET ссылка


Скачать .torrent

24 KB

Статус: проверено DHT
Скачан: торрент - 184 раз, раздача полностью - 245 раз
Размер: 4,21 GB
Оценка:  5 (Голосов: 1)
Поблагодарили: 1
Поделиться ссылкой на эту раздачу с друзьями:
В контактеFacebookОдноклассникиTwitterLivejournalМой МирLiveinternet
 

 
Показать сообщения:    


Вы не можете начинать темы
Вы не можете отвечать на сообщения
Вы не можете редактировать свои сообщения
Вы не можете удалять свои сообщения
Вы не можете голосовать в опросах
Вы не можете прикреплять файлы к сообщениям
Вы можете скачивать файлы