Loading...
Error

Скачать Все лучшее в тебе / What I Like About You (Сезон 2, Серии 1-22 (22)) (Гэри Хэрлворсон) [2003 г., комедия, HDTVRip, TVRip] торрент без регистрации

 
Статистика раздачи
Размер:  4,11 GB   |    Скачан:  170 раз
Сидов:  1  [  0 KB/s  ]  
 
Автор Сообщение

maxcross

[] 


Все лучшее в тебе / What I Like About You


Год выпуска: 2003-2004
Страна: США

Жанр: комедия
Продолжительность: ~ 00:22:00
Перевод: Профессиональный (многоголосый, закадровый) /MTV/
Режиссер: Гэри Хэрлворсон

В ролях:
Аманда Байнс, Дженни Гарт, Уэсли Джонатан, Саймон Рекс и др.

Описание:
После того, как отец 16-летней Холли и 28-летней Валери едет работать в Японию, старшей сестре приходится присматривать за своей неудачливой младшей. Налаженная жизнь, многообещающая карьера, деловые связи и отношения с мужчинами начинают рушиться прямо на глазах. И Холли, и Валери приходится ко многому привыкать, практически начиная жизнь заново, чтобы приспособиться друг к другу.

1-7, 11, 13-22...
Качество: HDTVRip
Формат: AVI
Видео кодек: XviD
Аудио кодек: MP3
Видео: 640*352 (1.82), 23.976 fps, XviD MPEG-4, ~949 kbps, 0.18 bit/pixel
Аудио RUS: 48 kHz, MPEG Layer 3, 2 ch, ~128.00 kbps avg
Аудио ENG: 48 kHz, MPEG Layer 3, 2 ch, ~160.00 kbps avg
8,10 и 12 серии:
Качество: TVRip
Видео: 640*480 (1.33), 25 fps, XviD MPEG-4, ~1063 kbps, 0.14 bit/pixel
Аудио RUS: 48 kHz, MPEG Layer 3, 2 ch, ~132 kbps
Релиз:
Озвучка: MTV Россия
Звук предоставил: shel, zhenyahacker
Работа со звуком: Cherry

| Сэмпл | IMDb | КиноПоиск


I Love You... Soon
Boys' Club
When Holly Met Tina
The Loft
Like a Virgin (Kinda)
No More Mr. Nice Guy
I'm Sorry, So Sorry
Partially Obstructed View
Absence Makes the Heart Grow...Never Mind
The Odd Couple
Regarding Henry
The Incredible Shrinking Group
The Hospital
Your Cheatin' Heart
Skyrink Sucks
Lunar Eclipse of the Heart
Val and Holly's Not Boyfriends
The Interview
The Big Picture
Rollin' in It
The Anti-Prom
The Second Season Finale (1)

General
Complete name : E:\What I Like About You - Season 2 (MTV)\what.i.like.about.you.s02e01.hdtvrip.rus.eng.newstudio.tv.avi
Format : AVI
Format/Info : Audio Video Interleave
File size : 191 MiB
Duration : 21mn 26s
Overall bit rate : 1 248 Kbps
Writing application : VirtualDubMod 1.5.10.2 (build 2542/release)
Writing library : VirtualDubMod build 2542/release

Video
ID : 0
Format : MPEG-4 Visual
Format profile : Advanced Simple@L5
Format settings, BVOP : Yes
Format settings, QPel : No
Format settings, GMC : No warppoints
Format settings, Matrix : Default (H.263)
Muxing mode : Packed bitstream
Codec ID : XVID
Codec ID/Hint : XviD
Duration : 21mn 26s
Bit rate : 946 Kbps
Width : 640 pixels
Height : 352 pixels
Display aspect ratio : 16:9
Frame rate : 23.976 fps
Resolution : 8 bits
Colorimetry : 4:2:0
Scan type : Progressive
Bits/(Pixel*Frame) : 0.175
Stream size : 145 MiB (76%)
Writing library : XviD 1.0.2 (UTC 2004-08-29)

Audio #1
ID : 1
Format : MPEG Audio
Format version : Version 1
Format profile : Layer 3
Format_Settings_Mode : Joint stereo
Format_Settings_ModeExtension : MS Stereo
Codec ID : 55
Codec ID/Hint : MP3
Duration : 21mn 26s
Bit rate mode : Constant
Bit rate : 128 Kbps
Channel(s) : 2 channels
Sampling rate : 48.0 KHz
Stream size : 19.6 MiB (10%)
Alignment : Aligned on interleaves
Interleave, duration : 42 ms (1.00 video frame)
Interleave, preload duration : 504 ms

Audio #2
ID : 2
Format : MPEG Audio
Format version : Version 1
Format profile : Layer 3
Format_Settings_Mode : Joint stereo
Format_Settings_ModeExtension : MS Stereo
Codec ID : 55
Codec ID/Hint : MP3
Duration : 21mn 25s
Bit rate mode : Constant
Bit rate : 160 Kbps
Channel(s) : 2 channels
Sampling rate : 48.0 KHz
Stream size : 24.5 MiB (13%)
Alignment : Split accross interleaves
Interleave, duration : 42 ms (1.00 video frame)
Interleave, preload duration : 500 ms
Writing library : LAME3.96.1

General
Complete name : E:\What I Like About You - Season 2 (MTV)\what.i.like.about.you.s02e08.qwerty.tvrip.rus.eng.newstudio.tv.avi
Format : AVI
Format/Info : Audio Video Interleave
File size : 176 MiB
Duration : 20mn 25s
Overall bit rate : 1 205 Kbps
Writing application : VirtualDubMod 1.5.10.2 (build 2540/release)
Writing library : VirtualDubMod build 2540/release

Video
ID : 0
Format : MPEG-4 Visual
Format profile : Advanced Simple@L5
Format settings, BVOP : Yes
Format settings, QPel : No
Format settings, GMC : No warppoints
Format settings, Matrix : Default (H.263)
Muxing mode : Packed bitstream
Codec ID : XVID
Codec ID/Hint : XviD
Duration : 20mn 25s
Bit rate : 1 060 Kbps
Width : 640 pixels
Height : 480 pixels
Display aspect ratio : 4:3
Frame rate : 25.000 fps
Resolution : 8 bits
Colorimetry : 4:2:0
Scan type : Progressive
Bits/(Pixel*Frame) : 0.138
Stream size : 155 MiB (88%)
Writing library : XviD 1.2.1 (UTC 2008-12-04)

Audio
ID : 1
Format : MPEG Audio
Format version : Version 1
Format profile : Layer 3
Format_Settings_Mode : Joint stereo
Format_Settings_ModeExtension : MS Stereo
Codec ID : 55
Codec ID/Hint : MP3
Duration : 20mn 25s
Bit rate mode : Variable
Bit rate : 132 Kbps
Nominal bit rate : 128 Kbps
Channel(s) : 2 channels
Sampling rate : 48.0 KHz
Stream size : 19.3 MiB (11%)
Alignment : Aligned on interleaves
Interleave, duration : 24 ms (0.60 video frame)
Interleave, preload duration : 511 ms
Writing library : LAME3.90.
Encoding settings : -m j -V 4 -q 2 -lowpass 17.6 --abr 128





Скачать Все.лучшее.в.тебе.What.I.Like.About.You.(Сезон.2.Серии.1-22.(22)).(Гэри.Хэрлворсон).[2003.г.комедия.HDTVRip.TVRip].torrent без регистрации
Золото ЗОЛОТАЯ РАЗДАЧА! СКАЧАННОЕ НЕ ЗАСЧИТЫВАЕТСЯ! Золото
Дата: Зарегистрирован   [ Тип: внутренний ] Как тут cкачать?
MAGNET ссылка
MAGNET ссылка


Скачать .torrent

23 KB

Статус: проверено DHT
Скачан: торрент - 170 раз, раздача полностью - 59 раз
Размер: 4,11 GB
Оценка:  5 (Голосов: 1)
Поблагодарили: 0
Поделиться ссылкой на эту раздачу с друзьями:
В контактеFacebookОдноклассникиTwitterLivejournalМой МирLiveinternet
 

 
Показать сообщения:    


Вы не можете начинать темы
Вы не можете отвечать на сообщения
Вы не можете редактировать свои сообщения
Вы не можете удалять свои сообщения
Вы не можете голосовать в опросах
Вы не можете прикреплять файлы к сообщениям
Вы можете скачивать файлы