Loading...
Error

Скачать Чуть свет – в Кэндлфорд / Lark Rise to Candleford (Сезон 4 полный) (Сью Тулли / Sue Tully) [2011, Экранизация, драма, TVRip] rus sub торрент без регистрации

 
Статистика раздачи
Размер:  2,86 GB   |    Скачан:  465 раз
Сидов:  2  [  1 KB/s  ]   Личеров:  1  [  0 KB/s  ]  
 
Автор Сообщение

maxcross

[] 

С жаворонками в Кэндлфорд / Ларк Райз против Кэндлфорда / Lark Rise to Candleford

Год выпуска: 2011
Страна: Великобритания
Жанр: Экранизация, драма
Продолжительность: 00:58:19 x 6
Перевод: оригинал
Русские субтитры: есть (перевод релизера)
Субтитры: русские, английские

Режиссёр: Сью Тулли / Sue Tully

В ролях:

Клоди Блэкли / Claudie Blakley ... Эмма Тимминс
Оливия Халлинан / Olivia Hallinan ... Лора Тимминс
Джулия Савала / Julia Sawalha ... Доркас Лэйн
Матильда Зиглер / Matilda Ziegler ... Перл Пратт
Виктория Хамильтон / Victoria Hamilton ... Руби Пратт
Джон Даглейш / John Dagleish ... Альф Арлесс
Линда Бассет / Linda Bassett ... Куини Турил
Карл Джонсон / Karl Johnson ... Твистер Турил
Марк Хип / Mark Heap ... Томас Браун
Сэнди МакДэйд / Sandy McDade ... миссис Браун
Руби Бентал / Ruby Bentall … Минни
Бен Элдридж / Ben Aldridge … Дэниел Париш
Эдвард Дарнелл-Хайс / Edward Darnell-Hayes … Сидни
Ричард Харрингтон / Richard Harrington… Габриэль Кокрэйн
Пол Риттер / Paul Ritter … мистер Стирфорт
Берн Горман / Burn Gorman … преподобный Марли

Описание: Четвертый сезон экранизации книг Флоры Джей Томпсон радует тем, что улицы Кэндлфорда и домики деревни Ларк Райз всё те же, их гости и жители почти не изменились, жизнь английской глухомани по-прежнему состоит из простых, но разнообразных человеческих радостей и горестей, а все здешние дорожки и тропинки так или иначе ведут в Почтовое отделение Кэндлфорда к Доркас Лэйн и Лоре.

Доп. информация:

Внимание! Раздача ведётся путём добавления новых серий; при каждом добавлении создётся новый торрент. Чтобы начать докачку новой серии, пользователям необходимо сделать следующее:
(1) остановить скачивание,
(2) удалить старый торрент у себя из клиента (старые серии удалять не надо),
(3) скачать новый торрент и запустить его у себя в клиенте вместо старого, при этом указать клиенту путь в старую папку куда и должно происходить скачивание новых серий.
Ваш клиент при этом должен произвести хеширование (проверку) старой папки (если не производит сам - помогите ему сделать это), и будет докачивать только те серии которых у вас ещё нет. Старые серии при этом не удаляются, а продолжают раздаваться!
Eсли вы уже удалили старые серии, то предотвратить повторную закачку старых серий можно, отжав галочку в соответсвующих местах при запуске нового торрента. По возможности, желательно не удалять старые серии как можно дольше чтобы релизёр не столько продолжал раздавать старые серии, а смог сконцентрироваться на новых.
18 февраля добавлена 6 серия, пожалуйста, обновите торрент-файл.
Во 2 серии фрагменты стихотворений Эндрю Марвелла "К стыдливой возлюбленной" и "Юная любовь" даны в переводе Марка Фрейдкина и Григория Кружкова.



Качество: TVRip
Формат: AVI
Видео кодек: XviD
Аудио кодек: MP3
Видео: 608x336 (1.81:1), 25 fps, XviD MPEG-4 ~1036 kbps avg, 0.20 bit/pixel
Аудио: 48 kHz, MPEG Layer 3, 2 ch, ~128.00 kbps avg ENG

General
Complete name : G:\КИНО\Lark_rise_to_Candleford_4_(2011)_BBC_[rutracker.org]\LarkRiseToCandleford_ВВС_s04e01.avi
Format : AVI
Format/Info : Audio Video Interleave
File size : 490 MiB
Duration : 58mn 19s
Overall bit rate : 1 174 Kbps
Writing library : Boilsoft Joiner build 2411/release

Video
ID : 0
Format : MPEG-4 Visual
Format profile : Advanced Simple@L5
Format settings, BVOP : Yes
Format settings, QPel : No
Format settings, GMC : No warppoints
Format settings, Matrix : Default (H.263)
Muxing mode : Packed bitstream
Codec ID : XVID
Codec ID/Hint : XviD
Duration : 58mn 19s
Bit rate : 1 037 Kbps
Width : 608 pixels
Height : 336 pixels
Display aspect ratio : 16:9
Frame rate : 25.000 fps
Resolution : 8 bits
Colorimetry : 4:2:0
Scan type : Progressive
Bits/(Pixel*Frame) : 0.203
Stream size : 433 MiB (88%)
Writing library : XviD 1.2.1 (UTC 2008-12-04)

Audio
ID : 1
Format : MPEG Audio
Format version : Version 1
Format profile : Layer 3
Mode : Joint stereo
Format_Settings_ModeExtension : MS Stereo
Codec ID : 55
Codec ID/Hint : MP3
Duration : 58mn 19s
Bit rate mode : Constant
Bit rate : 128 Kbps
Channel(s) : 2 channels
Sampling rate : 48.0 KHz
Stream size : 53.4 MiB (11%)
Alignment : Aligned on interleaves
Interleave, duration : 40 ms (1.00 video frame)
Interleave, preload duration : 480 ms



Скачать Чуть.свет.–.в.Кэндлфорд.Lark.Rise.to.Candleford.(Сезон.4.полный).(Сью.Тулли.Sue.Tully).[2011.Экранизация.драма.TVRip].rus.sub.torrent без регистрации
Золото ЗОЛОТАЯ РАЗДАЧА! СКАЧАННОЕ НЕ ЗАСЧИТЫВАЕТСЯ! Золото
Дата: Зарегистрирован   [ Тип: внутренний ] Как тут cкачать?
MAGNET ссылка
MAGNET ссылка


Скачать .torrent

17 KB

Статус: проверено DHT
Скачан: торрент - 465 раз, раздача полностью - 983 раз
Размер: 2,86 GB
Оценка:  5 (Голосов: 1)
Поблагодарили: 1
Поделиться ссылкой на эту раздачу с друзьями:
В контактеFacebookОдноклассникиTwitterLivejournalМой МирLiveinternet
 

 
Показать сообщения:    


Вы не можете начинать темы
Вы не можете отвечать на сообщения
Вы не можете редактировать свои сообщения
Вы не можете удалять свои сообщения
Вы не можете голосовать в опросах
Вы не можете прикреплять файлы к сообщениям
Вы можете скачивать файлы