Loading...
Error

Скачать Все, что она хотела / Everything She Ever Wanted (Питер Сватек / Peter Svatek) [2009, триллер, криминал, детектив, биография, DVDRip] [Лицензия] торрент без регистрации

 
Статистика раздачи
Размер:  2,9 GB   |    Скачан:  129 раз

Полного источника не было: 26 минут

 
Автор Сообщение

МихаНЕзатор

[] 

Все, что она хотела / Everything She Ever Wanted

Страна: Канада
Жанр: Триллер, криминал, детектив, биография
Год выпуска: 2009
Продолжительность: 1:23:51(1 часть) 1:26:04(2 часть)

Перевод: Профессиональный (многоголосый закадровый)
Cубтитры: нет
Режиссер: Питер Сватек / Peter Svatek

В ролях: Джина Гершон, Том Барнетт, Рейчел Блэнчард, Трэйси Ференц, Джессика Греко, Майкл Д. Най, Корина Конли, Лоуренс Дэйн, Лаура ДеКартере, Мартин Донован...

Описание: Южная красавица Патрисия Вэнн Рэдклифф Тейлор всегда чувствовала, что достойна большего, и решает любым способом примкнуть к привилегированной элите Атланты. Ведь ее кумир и образец для подражания Скарлетт О`Хара добилась этого.

Сэмпл: http://multi-up.com/465573

Релиз группы:

Качество видео: DVDRip
Формат видео: AVI

Видео: 720x544 (1.32:1), 25 fps, XviD build 50 ~2019 kbps avg, 0.21 bit/pixel
Аудио: 48 kHz, AC3 Dolby Digital, 3/2 (L,C,R,l,r) + LFE ch, ~448 kbps

1-ая часть:
General
Complete name : C:\Users\Раздачи\vse_4to_ona_xotela.2009.DVDRip.XviD.JRG\vse_4to_ona_xotela.2009.DVDRip.XviD.JRG.1seriya.avi
Format : AVI
Format/Info : Audio Video Interleave
File size : 1.45 GiB
Duration : 1h 23mn
Overall bit rate : 2 477 Kbps
Writing application : VirtualDubMod 1.5.10.3 |(build 2550/release)
Writing library : VirtualDub build 32842/release

Video
ID : 0
Format : MPEG-4 Visual
Format profile : Advanced Simple@L5
Format settings, BVOP : Yes
Format settings, QPel : No
Format settings, GMC : No warppoints
Format settings, Matrix : Default (MPEG)
Codec ID : XVID
Codec ID/Hint : XviD
Duration : 1h 23mn
Bit rate : 2 019 Kbps
Width : 720 pixels
Height : 544 pixels
Display aspect ratio : 4:3
Frame rate : 25.000 fps
Color space : YUV
Chroma subsampling : 4:2:0
Bit depth : 8 bits
Scan type : Progressive
Compression mode : Lossy
Bits/(Pixel*Frame) : 0.206
Stream size : 1.18 GiB (82%)
Writing library : XviD 1.2.1 (UTC 2008-12-04)

Audio
ID : 1
Format : AC-3
Format/Info : Audio Coding 3
Mode extension : CM (complete main)
Codec ID : 2000
Duration : 1h 23mn
Bit rate mode : Constant
Bit rate : 448 Kbps
Channel(s) : 6 channels
Channel positions : Front: L C R, Side: L R, LFE
Sampling rate : 48.0 KHz
Bit depth : 16 bits
Compression mode : Lossy
Stream size : 269 MiB (18%)
Alignment : Split accross interleaves
Interleave, duration : 40 ms (1.00 video frame)
Interleave, preload duration : 500 ms 2-ая часть:
General
Complete name : C:\Users\Раздачи\vse_4to_ona_xotela.2009.DVDRip.XviD.JRG\vse_4to_ona_xotela.2009.DVDRip.XviD.JRG.2seriya.avi
Format : AVI
Format/Info : Audio Video Interleave
File size : 1.45 GiB
Duration : 1h 26mn
Overall bit rate : 2 416 Kbps
Writing application : VirtualDubMod 1.5.10.3 |(build 2550/release)
Writing library : VirtualDubMod build 2550/release

Video
ID : 0
Format : MPEG-4 Visual
Format profile : Advanced Simple@L5
Format settings, BVOP : Yes
Format settings, QPel : No
Format settings, GMC : No warppoints
Format settings, Matrix : Default (MPEG)
Codec ID : XVID
Codec ID/Hint : XviD
Duration : 1h 26mn
Bit rate : 1 958 Kbps
Width : 720 pixels
Height : 544 pixels
Display aspect ratio : 4:3
Frame rate : 25.000 fps
Color space : YUV
Chroma subsampling : 4:2:0
Bit depth : 8 bits
Scan type : Progressive
Compression mode : Lossy
Bits/(Pixel*Frame) : 0.200
Stream size : 1.18 GiB (81%)
Writing library : XviD 1.2.1 (UTC 2008-12-04)

Audio
ID : 1
Format : AC-3
Format/Info : Audio Coding 3
Mode extension : CM (complete main)
Codec ID : 2000
Duration : 1h 26mn
Bit rate mode : Constant
Bit rate : 448 Kbps
Channel(s) : 6 channels
Channel positions : Front: L C R, Side: L R, LFE
Sampling rate : 48.0 KHz
Bit depth : 16 bits
Compression mode : Lossy
Stream size : 276 MiB (19%)
Alignment : Split accross interleaves
Interleave, duration : 40 ms (1.00 video frame)
Interleave, preload duration : 500 ms



Скачать Все.что.она.хотела.Everything.She.Ever.Wanted.(Питер.Сватек.Peter.Svatek).[2009.триллер.криминал.детектив.биография.DVDRip].[Лицензия].torrent без регистрации
Золото ЗОЛОТАЯ РАЗДАЧА! СКАЧАННОЕ НЕ ЗАСЧИТЫВАЕТСЯ! Золото
Дата: Зарегистрирован   [ Тип: внутренний ] Как тут cкачать?
MAGNET ссылка
MAGNET ссылка


Скачать .torrent

233 KB

Статус: проверено DHT
Скачан: торрент - 129 раз, раздача полностью - 18 раз
Размер: 2,9 GB
Оценка:  - (Голосов: 0)
Поблагодарили: 1
Поделиться ссылкой на эту раздачу с друзьями:
В контактеFacebookОдноклассникиTwitterLivejournalМой МирLiveinternet
 

 
Показать сообщения:    


Вы не можете начинать темы
Вы не можете отвечать на сообщения
Вы не можете редактировать свои сообщения
Вы не можете удалять свои сообщения
Вы не можете голосовать в опросах
Вы не можете прикреплять файлы к сообщениям
Вы можете скачивать файлы