Loading...
Error

Скачать Пуччини и девушка / Puccini e la fanciulla (Паоло Бенвенути, Паола Барони) [2008, драма, DVDRip] [TorrentClub] торрент без регистрации

 
Статистика раздачи
Размер:  1,37 GB   |    Скачан:  111 раз

Полного источника не было: 24 минуты

 
Автор Сообщение

МихаНЕзатор

[] 

Информация о фильме
Название: Пуччини и девушка
Оригинальное название: Puccini e la fanciulla
Год выхода: 2008
Жанр: драма
Режиссер: Паоло Бенвенути, Паола Барони
В ролях: Риккардо Моретти, Таня Скулларио, Джованна Дадди, Дебора Маттьелло, Федерика Чеззи и др.

О фильме:
1909 год. Однажды юная горничная Дория случайно застает приемную дочь Пуччини Фоску в постели с любовником. Для той, замужней дамы, служанка превращается во врага, владеющего страшной тайной. Чтобы обезопасить себя, Фоска намекает матери о возможной интимной связи между композитором и Дорией. Взбешенная ревнивая женщина начинает преследовать ни в чем не повинную девушку и доводит ее до самоубийства



Страна: Италия
Студия: Arsenali Medicei
Продолжительность: 01:17:31
Перевод: Профессиональный (многоголосый)

Файл
Кодек: XviD
Качество: DVDRip
Видео: 2327 Кбит/с, 720х544
Звук: AC3, 2ch, 192 Кбит/с
Субтитры: нет
Общее
Полное имя : E:Puchchiny.i.devushka.2008.DVDRip.Olezik.avi
Формат : AVI
Формат/Информация : Audio Video Interleave
Размер файла : 1,37 Гбайт
Продолжительность : 1 ч. 17 м.
Общий поток : 2526 Кбит/сек
Программа кодирования : VirtualDubMod 1.5.4.1 (build 2178/release)
Библиотека кодирования : VirtualDubMod build 2178/release

Видео
Идентификатор : 0
Формат : MPEG-4 Visual
Профиль формата : Advanced Simple@L5
Параметр BVOP формата : Нет
Параметр QPel формата : Нет
Параметр GMC формата : Без точки перехода
Параметр матрицы формата : Выборочная
Идентификатор кодека : XVID
Идентификатор кодека/Подсказка : XviD
Продолжительность : 1 ч. 17 м.
Битрейт : 2327 Кбит/сек
Ширина : 720 пикс.
Высота : 544 пикс.
Соотношение сторон : 4:3
Частота кадров : 25,000 кадр/сек
Цветовое пространство : YUV
Подвыборка цветности : 4:2:0
Битовая глубина : 8 бит
Тип развёртки : Прогрессивная
Метод сжатия : С потерями
Бит/(Пиксели*Кадры) : 0.238
Размер потока : 1,26 Гбайт (92%)
Библиотека кодирования : XviD 1.3.0.dev55

Аудио
Идентификатор : 1
Формат : AC-3
Формат/Информация : Audio Coding 3
Расширение режима : CM (complete main)
Идентификатор кодека : 2000
Продолжительность : 1 ч. 17 м.
Вид битрейта : Постоянный
Битрейт : 192 Кбит/сек
Канал(ы) : 2 канала(ов)
Расположение каналов : Front: L R
Частота : 48,0 КГц
Битовая глубина : 16 бит
Метод сжатия : С потерями
Размер потока : 106 Мбайт (8%)
Выравнивание : Разделение по промежуткам
Продолжительность промежутка : 96 мс. (2,40 видеокадров)
Время предзагрузки промежутка : 96 ms
Язык : Russian


Релиз от:






Скачать Пуччини.и.девушка.Puccini.e.la.fanciulla.(Паоло.Бенвенути.Паола.Барони).[2008.драма.DVDRip].[TorrentClub].torrent без регистрации
Золото ЗОЛОТАЯ РАЗДАЧА! СКАЧАННОЕ НЕ ЗАСЧИТЫВАЕТСЯ! Золото
Дата: Зарегистрирован   [ Тип: внутренний ] Как тут cкачать?
MAGNET ссылка
MAGNET ссылка


Скачать .torrent

14 KB

Статус: проверено DHT
Скачан: торрент - 111 раз, раздача полностью - 2 раз
Размер: 1,37 GB
Оценка:  5 (Голосов: 1)
Поблагодарили: 0
Поделиться ссылкой на эту раздачу с друзьями:
В контактеFacebookОдноклассникиTwitterLivejournalМой МирLiveinternet
 

 
Показать сообщения:    


Вы не можете начинать темы
Вы не можете отвечать на сообщения
Вы не можете редактировать свои сообщения
Вы не можете удалять свои сообщения
Вы не можете голосовать в опросах
Вы не можете прикреплять файлы к сообщениям
Вы можете скачивать файлы