Loading...
Error

Скачать Состояние исступления / State of Grace (Фил Джоану /Phil Joanou) [1990, Драма, Криминал, Триллер, DVDRip] торрент без регистрации

 
Статистика раздачи
Размер:  1,94 GB   |    Скачан:  143 раза
Сидов:  1  [  0 KB/s  ]  
 
Автор Сообщение

Marsianka

[] 

Информация о фильме:

Название: Состояние исступления
Оригинальное название: State of Grace
Год выхода: 1990
Жанр: Драма, Криминал, Триллер

Режиссер: Фил Джоану /Phil Joanou/
Сценарист: Дэннис Макинтайр /Dennis McIntyre/
Оператор: Джордан Кроненуэт /Jordan Cronenweth/
Композиторы: Эннио Морриконе /Ennio Morricone/, Петр Ильич Чайковский

В ролях: Шон Пенн /Sean Penn/, Гари Олдман /Gary Oldman/, Эд Харрис /Ed Harris/, Робин Райт /Robin Wright/, Джон Туртурро /John Turturro/, Джон Си Райли /John C. Reilly/, Р.Д. Колл /R.D. Call/, Джо Витерелли /Joe Viterelli/, Бёрджесс Мередит /Burgess Meredith/ и другие...

Описание: Терри вырос в Адской кухне, небольшом ирландском квартале в западной части Манхэттена. Вернувшись в Нью-Йорк после десятилетнего отсутствия, он встречает своего лучшего друга детства Джеки, чей брат Фрэнки стал боссом ирландской мафии, а сестра Кэтлин, первая любовь Терри, превратилась в очаровательную женщину.
Не вполне доверяя Терри, Фрэнки все-таки поручает ему вместе с Джеки выколачивать дань с местных торговцев. Никто еще не знает, что Терри полицейский, работающий под прикрытием. И Терри мучительно разрывается между дружбой с Джеки, любовью к Кэтлин и необходимостью выполнить свой долг, упрятав Фрэнки за решетку.

Страна:
Выпущено: Cinehaus / Orion Pictures Corporation
Продолжительность: 02:14:08
Перевод: Любительский, одноголосый / sf@irat / Без цензуры / Ненормативная лексика /



Качество: DVDRip
Формат: AVI
Видео кодек: DivX
Аудио кодек: AC3
Видео: 704x384 (1.83:1), 23.976 fps, DivX Codec 5.2.1 build 1328 ~1736 kbps avg, 0.27 bit/pixel
Аудио: 48 kHz, AC3 Dolby Digital, 3/2 (L,C,R,l,r) + LFE ch, ~320.00 kbps avg
Субтитры: нет
Format : AVI
Format/Info : Audio Video Interleave
File size : 1.94 GiB
Duration : 2h 14mn
Overall bit rate : 2 065 Kbps
Writing application : VirtualDubMod 1.5.10.2 (build 2542/release)

Video
ID : 0
Format : MPEG-4 Visual
Format settings, BVOP : Yes
Format settings, QPel : No
Format settings, GMC : No warppoints
Format settings, Matrix : Default (H.263)
Muxing mode : Packed bitstream
Codec ID : DX50
Codec ID/Hint : DivX 5
Duration : 2h 14mn
Bit rate : 1 736 Kbps
Width : 704 pixels
Height : 384 pixels
Display aspect ratio : 16:9
Frame rate : 23.976 fps
Color space : YUV
Chroma subsampling : 4:2:0
Bit depth : 8 bits
Scan type : Progressive
Bits/(Pixel*Frame) : 0.268
Stream size : 1.63 GiB (84%)
Writing library : DivX 5.2.1 (WaffleDay) (UTC 2004-09-08)

Audio
ID : 1
Format : AC-3
Format/Info : Audio Coding 3
Mode extension : CM (complete main)
Codec ID : 2000
Duration : 2h 14mn
Bit rate mode : Constant
Bit rate : 320 Kbps
Channel(s) : 6 channels
Channel positions : Front: L C R, Side: L R, LFE
Sampling rate : 48.0 KHz
Stream size : 307 MiB (15%)
Alignment : Split accross interleaves
Interleave, duration : 42 ms (1.00 video frame)
Interleave, preload duration : 500 ms



Скачать Состояние.исступления.State.of.Grace.(Фил.Джоану.Phil.Joanou).[1990.Драма.Криминал.Триллер.DVDRip].torrent без регистрации
Золото ЗОЛОТАЯ РАЗДАЧА! СКАЧАННОЕ НЕ ЗАСЧИТЫВАЕТСЯ! Золото
Дата: Зарегистрирован   [ Тип: внутренний ] Как тут cкачать?
MAGNET ссылка
MAGNET ссылка


Скачать .torrent

20 KB

Статус: проверено DHT
Скачан: торрент - 143 раз, раздача полностью - 71 раз
Размер: 1,94 GB
Оценка:  5 (Голосов: 1)
Поблагодарили: 1
Поделиться ссылкой на эту раздачу с друзьями:
В контактеFacebookОдноклассникиTwitterLivejournalМой МирLiveinternet
 

 
Показать сообщения:    


Вы не можете начинать темы
Вы не можете отвечать на сообщения
Вы не можете редактировать свои сообщения
Вы не можете удалять свои сообщения
Вы не можете голосовать в опросах
Вы не можете прикреплять файлы к сообщениям
Вы можете скачивать файлы