Loading...
Error

Скачать Башня Познания / Tower Prep (Сезон 1, серии 1-9 из 13) (Терри МакДонаф) [2010, приключения, драма, мистика, HDTVRip] ]OneFilm] торрент без регистрации

 
Статистика раздачи
Размер:  365 MB   |    Скачан:  164 раза

Полного источника не было: 30 минут

 
Автор Сообщение

МихаНЕзатор

[] 

Башня Познания / Tower Prep

Год выпуска: 2010
Страна: США, Канада
Жанр: Приключения, драма, мистика
Продолжительность: 00:42:12
Перевод: Любительский (многоголосый, закадровый) (OneFilm)
Русские субтитры: нет
Режиссёр: Терри МакДонаф

В ролях: Райан Пинкстон, Диана Лью, Элиз Гэтьен, Дрю Ван Эккер, Ричард Хэрмон

Описание: Сериал повествует о подростках, которые невероятным способом оказываются в таинственной подготовительной школе, где происходит развитие различных мистических способностей учащихся. Группа ребята объединяется с целью выяснить: почему они тут удерживаются, кем и для чего были сюда перемещены, и как им вернуться домой.

SAMPLE

Качество: HDTVRip
Формат: AVI
Видео кодек: H.264
Аудио кодек: MP3
Видео: 624x352 (1.77:1), 25.0 fps, H264, ~1206 kbps avg, 0.220 bit/pixel
Аудио: MPEG Audio Layer 3 44100Hz stereo 128 Kbps

Над релизом работали:
Перевод: serik64
Звукорежиссер: hedgehog--
Озвучивание: ASTIN, ]{risti (до 5 серии), mystery (с 6 серии), SPN, Medvesher (до 5 серии), kraffty (с 5 серии), Katerina), Mila (с 8 серии), Leshqa (с 8 серии), Betty (с 6 серии)

Код:

General
Complete name                    : C:\Downloads\uTorrent\Tower Prep HDTV S01 OneFilm\Tower.Prep.s01e01.HDTV.Xvid-2hd.OneFilm.TV.avi
Format                           : AVI
Format/Info                      : Audio Video Interleave
File size                        : 406 MiB
Duration                         : 42mn 12s
Overall bit rate                 : 1 347 Kbps
Writing application              : Lavf51.12.1

Video
ID                               : 0
Format                           : AVC
Format/Info                      : Advanced Video Codec
Format profile                   : Baseline@L1.3
Format settings, CABAC           : No
Format settings, ReFrames        : 1 frame
Codec ID                         : H264
Duration                         : 42mn 12s
Bit rate                         : 1 206 Kbps
Width                            : 624 pixels
Height                           : 352 pixels
Display aspect ratio             : 16:9
Frame rate                       : 25.000 fps
Resolution                       : 8 bits
Colorimetry                      : 4:2:0
Scan type                        : Progressive
Bits/(Pixel*Frame)               : 0.220
Stream size                      : 364 MiB (90%)

Audio
ID                               : 1
Format                           : MPEG Audio
Format version                   : Version 1
Format profile                   : Layer 3
Mode                             : Joint stereo
Format_Settings_ModeExtension    : MS Stereo
Codec ID                         : 55
Codec ID/Hint                    : MP3
Duration                         : 42mn 12s
Bit rate mode                    : Constant
Bit rate                         : 128 Kbps
Channel(s)                       : 2 channels
Sampling rate                    : 44.1 KHz
Stream size                      : 38.6 MiB (10%)
Alignment                        : Aligned on interleaves
Interleave, duration             : 26 ms (0.65 video frame)
Interleave, preload duration     : 26 ms

Внимание! Раздача ведётся путём добавления новых серий; при каждом добавлении создётся новый торрент. Чтобы начать докачку новой серии, пользователям необходимо сделать следующее:
(1) остановить скачивание,
(2) удалить старый торрент-файл у себя из клиента (старые серии удалять не надо),
(3) скачать новый торрент-файл из раздачи и запустить его у себя в клиенте вместо старого, при этом указать клиенту путь в старую папку куда и должно происходить скачивание новых серий.
Ваш клиент при этом должен произвести хеширование (проверку) старой папки (если не производит сам - помогите ему сделать это), и будет докачивать только те серии которых у вас ещё нет. Старые серии при этом не удаляются, а продолжают раздаваться!
Eсли вы уже посмотрели и удалили старые серии, то предотвратить повторную закачку старых серий можно, сняв галочки в соответсвующих местах при запуске нового торрента. По возможности, желательно не удалять старые серии как можно дольше чтобы релизёр не столько продолжал раздавать старые серии, а смог сконцентрироваться на новых.


26.04.2011 г. торент обновлён, добавлена 9-я серия!





Скачать Башня.Познания.Tower.Prep.(Сезон.1.серии.1-9.из.13).(Терри.МакДонаф).[2010.приключения.драма.мистика.HDTVRip].]OneFilm].torrent без регистрации
Золото ЗОЛОТАЯ РАЗДАЧА! СКАЧАННОЕ НЕ ЗАСЧИТЫВАЕТСЯ! Золото
Дата: Зарегистрирован   [ Тип: внутренний ] Как тут cкачать?
MAGNET ссылка
MAGNET ссылка


Скачать .torrent

15 KB

Статус: проверено DHT
Скачан: торрент - 164 раз, раздача полностью - 14 раз
Размер: 365 MB
Оценка:  5 (Голосов: 1)
Поблагодарили: 1
Поделиться ссылкой на эту раздачу с друзьями:
В контактеFacebookОдноклассникиTwitterLivejournalМой МирLiveinternet
 

 
Показать сообщения:    


Вы не можете начинать темы
Вы не можете отвечать на сообщения
Вы не можете редактировать свои сообщения
Вы не можете удалять свои сообщения
Вы не можете голосовать в опросах
Вы не можете прикреплять файлы к сообщениям
Вы можете скачивать файлы