Loading...
Error

Скачать Страсть не знает преград / Alle Anderen / Everyone Else (Марен Эд / Maren Ade) [2009, драма, мелодрама, DVDRip] торрент без регистрации

 
Статистика раздачи
Размер:  1,37 GB   |    Скачан:  138 раз
Сидов:  1  [  0 KB/s  ]  
 
Автор Сообщение

МихаНЕзатор

[] 

Страсть не знает преград / Alle Anderen / Everyone Else

Год выпуска: 2009
Страна: Германия
Жанр: драма, мелодрама
Продолжительность: 01:58:53

Перевод: Профессиональный (многоголосый закадровый) ("Русский репортаж")
Cубтитры: нет
Оригинальная аудиодорожка: немецкая

Режиссер: Марен Эд / Maren Ade
В ролях: Биргит Минихмайр, Ларс Айдингер, Ханс-Йохен Вагнер, Николь Маришка, Мира Партеке, Атеф Фогель, Паула Хартманн

Награды: Серебряный Медведь за лучшую женскую роль (Биргит Минихмайр), Серебряный Медведь - Гран-при жюри, Приз Femina-Film Prize

Описание: Крис и Гитти — молодая пара приехавшая отдыхать на Сардинию. Он — молодой архитектор, она работает в рекламном агентстве. Дважды их одиночество нарушают две другие молодые пары: первые только что обзавелись потомством, вторые собираются это сделать и из-за этого почти незаметно в отношениях Криса и Гитти появляются разногласия и взаимное раздражение.



Семпл: http://multi-up.com/435665

Качество видео: DVDRip (Alle.Anderen.German.AC3.DVDRip.XviD-CRUCiAL)
Формат видео: AVI

Видео: XviD, 1189 Kbps, 608x320, 25.000 fps
Аудио #1 (RUS): MP3, 2ch, 224 Kbps, 48 KHz, JS
Аудио #2 (GER): MP3, 2ch, 224 Kbps, 48 KHz, JS

В середине и конце на некоторих сценах несколько секунд без перевода. Так уж НТВ+ показывали.

General
Complete name : Alle.Anderen.2009.P2.DVDRip.avi
Format : AVI
Format/Info : Audio Video Interleave
File size : 1.37 GiB
Duration : 1h 58mn
Overall bit rate : 1 651 Kbps
Writing application : VirtualDubMod 1.5.4.1 (build 2178/release)
Writing library : VirtualDubMod build 2178/release

Video
ID : 0
Format : MPEG-4 Visual
Format profile : Advanced Simple@L5
Format settings, BVOP : Yes
Format settings, QPel : No
Format settings, GMC : No warppoints
Format settings, Matrix : Default (MPEG)
Codec ID : XVID
Codec ID/Hint : XviD
Duration : 1h 58mn
Bit rate : 1 189 Kbps
Width : 608 pixels
Height : 320 pixels
Display aspect ratio : 1.900
Frame rate : 25.000 fps
Resolution : 8 bits
Colorimetry : 4:2:0
Scan type : Progressive
Bits/(Pixel*Frame) : 0.244
Stream size : 1 011 MiB (72%)
Writing library : XviD 1.3.0.dev55

Audio #1
ID : 1
Format : MPEG Audio
Format version : Version 1
Format profile : Layer 3
Mode : Joint stereo
Codec ID : 55
Codec ID/Hint : MP3
Duration : 1h 58mn
Bit rate mode : Constant
Bit rate : 224 Kbps
Channel(s) : 2 channels
Sampling rate : 48.0 KHz
Stream size : 190 MiB (14%)
Alignment : Aligned on interleaves
Interleave, duration : 40 ms (1.00 video frame)
Interleave, preload duration : 504 ms

Audio #2
ID : 2
Format : MPEG Audio
Format version : Version 1
Format profile : Layer 3
Mode : Joint stereo
Codec ID : 55
Codec ID/Hint : MP3
Duration : 1h 58mn
Bit rate mode : Constant
Bit rate : 224 Kbps
Channel(s) : 2 channels
Sampling rate : 48.0 KHz
Stream size : 190 MiB (14%)
Alignment : Aligned on interleaves
Interleave, duration : 40 ms (1.00 video frame)
Interleave, preload duration : 504 ms



Скачать Страсть.не.знает.преград.Alle.Anderen.Everyone.Else.(Марен.Эд.Maren.Ade).[2009.драма.мелодрама.DVDRip].torrent без регистрации
Золото ЗОЛОТАЯ РАЗДАЧА! СКАЧАННОЕ НЕ ЗАСЧИТЫВАЕТСЯ! Золото
Дата: Зарегистрирован   [ Тип: внутренний ] Как тут cкачать?
MAGNET ссылка
MAGNET ссылка


Скачать .torrent

14 KB

Статус: проверено DHT
Скачан: торрент - 138 раз, раздача полностью - 31 раз
Размер: 1,37 GB
Оценка:  - (Голосов: 0)
Поблагодарили: 0
Поделиться ссылкой на эту раздачу с друзьями:
В контактеFacebookОдноклассникиTwitterLivejournalМой МирLiveinternet
 

 
Показать сообщения:    


Вы не можете начинать темы
Вы не можете отвечать на сообщения
Вы не можете редактировать свои сообщения
Вы не можете удалять свои сообщения
Вы не можете голосовать в опросах
Вы не можете прикреплять файлы к сообщениям
Вы можете скачивать файлы