Loading...
Error

Скачать Подводное течение / Contracorriente / Undertow (Хавьер Фуэнтес-Леон / Javier Fuentes-León) [2009, драма, гей тема, DVDRip] [VO] торрент без регистрации

 
Статистика раздачи
Размер:  1,15 GB   |    Скачан:  142 раза
Сидов:  1  [  0 KB/s  ]  
 
Автор Сообщение

МихаНЕзатор

[] 

Подводное течение / Contracorriente / Undertow

Страна: Перу
Жанр: Драма
Год выпуска: 2009
Продолжительность: 1:36:41

Перевод: Любительский (одноголосый закадровый) (Василий Кошкин)
Cубтитры: нет

Режиссер: Javier Fuentes-León / Хавьер Фуэнтес-Леон

В ролях: Tatiana Astengo, Manolo Cardona, Cristian Mercado

Описание: Загадочная история с призраками разыгрывается на перуанском побережье, где женатый рыбак пытается совместить свои чувства к мужчине-любовнику с суровыми и консервативными взглядами жителей города.

Сэмпл:http://ifolder.ru/22942314

Качество видео: DVDRip
Формат видео: AVI

Видео: mpeg-4,688x384,16:9,25.000 fps,1 496 Kbps
Аудио: MPEG Audio,44.1 KHz,192 Kbps, 2 channels

General
Complete name : C:\Documents and Settings\Admin\Рабочий стол\для торрента\Undertow.avi
Format : AVI
Format/Info : Audio Video Interleave
File size : 1.15 GiB
Duration : 1h 36mn
Overall bit rate : 1 698 Kbps

Video
ID : 0
Format : MPEG-4 Visual
Format profile : Advanced Simple@L5
Format settings, BVOP : No
Format settings, QPel : No
Format settings, GMC : No warppoints
Format settings, Matrix : Default (MPEG)
Codec ID : XVID
Codec ID/Hint : XviD
Duration : 1h 36mn
Bit rate : 1 496 Kbps
Width : 688 pixels
Height : 384 pixels
Display aspect ratio : 16:9
Frame rate : 25.000 fps
Resolution : 8 bits
Colorimetry : 4:2:0
Scan type : Progressive
Bits/(Pixel*Frame) : 0.227
Stream size : 1.01 GiB (88%)
Writing library : XviD 1.2.1 (UTC 2008-12-04)

Audio
ID : 1
Format : MPEG Audio
Format version : Version 1
Format profile : Layer 3
Codec ID : 55
Codec ID/Hint : MP3
Duration : 1h 36mn
Bit rate mode : Constant
Bit rate : 192 Kbps
Channel(s) : 2 channels
Sampling rate : 44.1 KHz
Stream size : 133 MiB (11%)
Alignment : Split accross interleaves
Interleave, duration : 40 ms (1.01 video frame)



Скачать Подводное.течение.Contracorriente.Undertow.(Хавьер.Фуэнтес-Леон.Javier.Fuentes-León).[2009.драма.гей.тема.DVDRip].[VO].torrent без регистрации
Золото ЗОЛОТАЯ РАЗДАЧА! СКАЧАННОЕ НЕ ЗАСЧИТЫВАЕТСЯ! Золото
Дата: Зарегистрирован   [ Тип: внутренний ] Как тут cкачать?
MAGNET ссылка
MAGNET ссылка


Скачать .torrent

12 KB

Статус: проверено DHT
Скачан: торрент - 142 раз, раздача полностью - 74 раз
Размер: 1,15 GB
Оценка:  - (Голосов: 0)
Поблагодарили: 0
Поделиться ссылкой на эту раздачу с друзьями:
В контактеFacebookОдноклассникиTwitterLivejournalМой МирLiveinternet
 

 
Показать сообщения:    


Вы не можете начинать темы
Вы не можете отвечать на сообщения
Вы не можете редактировать свои сообщения
Вы не можете удалять свои сообщения
Вы не можете голосовать в опросах
Вы не можете прикреплять файлы к сообщениям
Вы можете скачивать файлы