Loading...
Error

Скачать Турнир / The Tournament (Скотт Манн / Scott Mann) [2009 г., Боевик, HDRip][Полная версия] торрент без регистрации

 
Статистика раздачи
Размер:  2,18 GB   |    Скачан:  159 раз
Сидов:  1  [  0 KB/s  ]  
 
Автор Сообщение

Shara

[] 

Турнир / The Tournament

Год выпуска: 2009
Страна: Великобритания, Buzzfilms
Жанр: Боевик
Продолжительность: 01:35:14
Перевод: Профессиональный (многоголосый, закадровый)
Русские субтитры: есть
- отдельно три вида

Режиссер: Скотт Манн / Scott Mann

В ролях: Роберт Карлайл /Robert Carlyle/, Келли Ху /Kelly Hu/, Йен Сомерхалдер /Ian Somerhalder/, Лиам Каннингэм /Liam Cunningham/, Винг Рэймс /Ving Rhames/, Себастьен Фука /Sebastien Foucan/

Описание: Каждые семь лет в одном из городов проходит необычный турнир. Наемные убийцы со всего мира приезжают туда, чтобы показать свое кровавое мастерство. Каждый раз их должно быть ровно тридцать, но победитель будет только один! Он получит звание лучшего в своем «деле» и 10 миллионов долларов в придачу.
Но, есть и другие участники турнира — те, кто у экранов мониторов, вдали от «арены», внимательно следят за смертельными поединками. Они наблюдают не из простого любопытства — они сделали крупные ставки, каждый выбрав своего бойца. Это и есть истинные игроки…

Доп. информация:

IMDB 6.1/10 7,807 votes

CЭМПЛ

Качество: HDRip(Исходник BD1080)
Формат: AVI
Видео кодек: XviD
Аудио кодек: AC3
Video: 720x400 (1.80:1), 23.976 fps, XviD build 50 ~2360 kbps avg, 0.34 bit/pixel
Audio #1: 48 kHz, AC3 Dolby Digital, 3/2 (L,C,R,l,r) + LFE ch, ~448 kbps RUS
Audio #2: 48 kHz, AC3 Dolby Digital, 3/2 (L,C,R,l,r) + LFE ch, ~448 kbps ENG
Субтитры:русские-1
Субтитры:русские-2
Субтитры:русские-3

http://comparescreenshots.slicx.com/comparison/62538

.
спектрограмма звука
HQ - AC3-384

chopper887 AC3-448
File: Turnir.chopper887.avi
Filesize: 2228.56 Mb ( 2 336 813 056 bytes )
Play length: 01:35:14.718 (137016 frames)
Subtitles: Not Present
Video: 720x400 (1.80:1), 23.976 fps, XviD build 50 ~2360 kbps avg, 0.34 bit/pixel
Audio #1: 48 kHz, AC3 Dolby Digital, 3/2 (L,C,R,l,r) + LFE ch, ~448 kbps
Audio #2: 48 kHz, AC3 Dolby Digital, 3/2 (L,C,R,l,r) + LFE ch, ~448 kbps
General
Complete name : F:\Turnir.chopper887.avi
Format : AVI
Format/Info : Audio Video Interleave
File size : 2.18 GiB
Duration : 1h 35mn
Overall bit rate : 3 271 Kbps
Writing application : VirtualDubMod 1.5.10.2 (build 2540/release)
Writing library : VirtualDubMod build 2540/release

Video
ID : 0
Format : MPEG-4 Visual
Format profile : Advanced Simple@L5
Format settings, BVOP : Yes
Format settings, QPel : No
Format settings, GMC : No warppoints
Format settings, Matrix : Custom

Codec ID : XVID
Codec ID/Hint : XviD
Duration : 1h 35mn
Bit rate : 2 361 Kbps
Width : 720 pixels
Height : 400 pixels
Display aspect ratio : 16:9
Frame rate : 23.976 fps
Color space : YUV
Chroma subsampling : 4:2:0
Bit depth : 8 bits
Scan type : Progressive
Bits/(Pixel*Frame) : 0.342
Stream size : 1.57 GiB (72%)
Writing library : XviD 1.2.1 (UTC 2008-12-04)

Audio #1
ID : 1
Format : AC-3
Format/Info : Audio Coding 3
Mode extension : CM (complete main)
Codec ID : 2000
Duration : 1h 35mn
Bit rate mode : Constant
Bit rate : 448 Kbps
Channel(s) : 6 channels
Channel positions : Front: L C R, Side: L R, LFE
Sampling rate : 48.0 KHz
Stream size : 305 MiB (14%)
Alignment : Split accross interleaves
Interleave, duration : 42 ms (1.00 video frame)
Interleave, preload duration : 500 ms

Audio #2
ID : 2
Format : AC-3
Format/Info : Audio Coding 3
Mode extension : CM (complete main)
Codec ID : 2000
Duration : 1h 35mn
Bit rate mode : Constant
Bit rate : 448 Kbps
Channel(s) : 6 channels
Channel positions : Front: L C R, Side: L R, LFE
Sampling rate : 48.0 KHz
Stream size : 305 MiB (14%)
Alignment : Split accross interleaves
Interleave, duration : 42 ms (1.00 video frame)
Interleave, preload duration : 500 ms



Скачать Турнир.The.Tournament.(Скотт.Манн.Scott.Mann).[2009.г.Боевик.HDRip][Полная.версия].torrent без регистрации
Золото ЗОЛОТАЯ РАЗДАЧА! СКАЧАННОЕ НЕ ЗАСЧИТЫВАЕТСЯ! Золото
Дата: Зарегистрирован   [ Тип: внутренний ] Как тут cкачать?
MAGNET ссылка
MAGNET ссылка


Скачать .torrent

12 KB

Статус: проверено DHT
Скачан: торрент - 159 раз, раздача полностью - 140 раз
Размер: 2,18 GB
Оценка:  5 (Голосов: 1)
Поблагодарили: 2
Поделиться ссылкой на эту раздачу с друзьями:
В контактеFacebookОдноклассникиTwitterLivejournalМой МирLiveinternet
 

 

leon030982

[] 

и чем отличается ета полная версия от обычной ???
 

Shara

[] 

leon030982

а вот это фиг его знает :)
 

leon030982

[] 

Shara писал(а):

leon030982

а вот это фиг его знает :)
хорошее отличие ag
 
Показать сообщения:    


Вы не можете начинать темы
Вы не можете отвечать на сообщения
Вы не можете редактировать свои сообщения
Вы не можете удалять свои сообщения
Вы не можете голосовать в опросах
Вы не можете прикреплять файлы к сообщениям
Вы можете скачивать файлы