Loading...
Error

Скачать Бамбу / Bambou (Дидье Бурдон / Didier Bourdon) [2009, комедия, DVDRip] [Лицензия] торрент без регистрации

 
Статистика раздачи
Размер:  1,37 GB   |    Скачан:  150 раз
Сидов:  1  [  0 KB/s  ]  
 
Автор Сообщение

МихаНЕзатор

[] 

Бамбу / Bambou


Страна: Франция
Жанр: комедия
Год выпуска: 2009
Продолжительность: 01:33:15

Перевод: Профессиональный (многоголосый закадровый)
Cубтитры: нет
Режиссер: Дидье Бурдон / Didier Bourdon

В ролях: Дидье Бурдон, Энн Консиньи, Пьер Ардити, Эдди Мичелл, Анни Дюпре, Аксель Аббади, Эрик Фратичелли, Жан-Пьер Тальяферри

Описание: Ален — служащий банка, очень любит свою жену, мечтает о полноценной семье и ребенке. Анна — жена Алена — не готова становиться домохозяйкой. Она поглощена своей музыкальной карьерой. Однажды в их доме появляется щенок по кличке Бамбу. «Личный враг» Алена скоро становится самым верным его другом, а Анна — будущей счастливой мамой и известной пианисткой.
Sempl

Качество видео: DVDRip
Формат видео: AVI

Видео: 720x400 (1.80:1), 25 fps, XviD build 46 ~1639 kbps avg, 0.23 bit/pixel
Аудио: 48 kHz, AC3 Dolby Digital, 3/2 (L,C,R,l,r) + LFE ch, ~448 kbps

5.1/10 (52 votes)

Общее
Полное имя : G:\Downloads\bambu_DVDRip_2009.avi
Формат : AVI
Формат/Информация : Audio Video Interleave
Размер файла : 1,37 Гбайт
Продолжительность : 1 ч. 33 м.
Общий поток : 2099 Кбит/сек
Название фильма : Бамбу.Title3.DVDRip
Программа кодирования : Lavf52.17.0
Формат оригинала/Имя : Бамбу

Видео
Идентификатор : 0
Формат : MPEG-4 Visual
Профиль формата : Simple@L3
Параметр BVOP формата : Нет
Параметр QPel формата : Нет
Параметр GMC формата : Без точки перехода
Параметр матрицы формата : Default (H.263)
Идентификатор кодека : XVID
Идентификатор кодека/Подсказка : XviD
Продолжительность : 1 ч. 33 м.
Битрейт : 1640 Кбит/сек
Ширина : 720 пикс.
Высота : 400 пикс.
Соотношение сторон : 16:9
Частота кадров : 25,000 кадр/сек
Цветовое пространство : YUV
Подвыборка цветности : 4:2:0
Битовая глубина : 8 бит
Тип развёртки : Прогрессивная
Метод сжатия : С потерями
Бит/(Пиксели*Кадры) : 0.228
Размер потока : 1,07 Гбайт (78%)
Библиотека кодирования : XviD 1.1.2 (UTC 2006-11-01)

Аудио
Идентификатор : 1
Формат : AC-3
Формат/Информация : Audio Coding 3
Расширение режима : CM (complete main)
Идентификатор кодека : 2000
Продолжительность : 1 ч. 33 м.
Вид битрейта : Постоянный
Битрейт : 448 Кбит/сек
Канал(ы) : 6 канала(ов)
Расположение каналов : Front: L C R, Side: L R, LFE
Частота : 48,0 КГц
Битовая глубина : 16 бит
Метод сжатия : С потерями
Размер потока : 299 Мбайт (21%)
Выравнивание : Соединение по промежуткам
Продолжительность промежутка : 32 мс. (0,80 видеокадр)
Время предзагрузки промежутка : 32 ms



Скачать Бамбу.Bambou.(Дидье.Бурдон.Didier.Bourdon).[2009.комедия.DVDRip].[Лицензия].torrent без регистрации
Золото ЗОЛОТАЯ РАЗДАЧА! СКАЧАННОЕ НЕ ЗАСЧИТЫВАЕТСЯ! Золото
Дата: Зарегистрирован   [ Тип: внутренний ] Как тут cкачать?
MAGNET ссылка
MAGNET ссылка


Скачать .torrent

7 KB

Статус: проверено DHT
Скачан: торрент - 150 раз, раздача полностью - 48 раз
Размер: 1,37 GB
Оценка:  5 (Голосов: 2)
Поблагодарили: 1
Поделиться ссылкой на эту раздачу с друзьями:
В контактеFacebookОдноклассникиTwitterLivejournalМой МирLiveinternet
 

 
Показать сообщения:    


Вы не можете начинать темы
Вы не можете отвечать на сообщения
Вы не можете редактировать свои сообщения
Вы не можете удалять свои сообщения
Вы не можете голосовать в опросах
Вы не можете прикреплять файлы к сообщениям
Вы можете скачивать файлы