Loading...
Error

Скачать Феномен / Phenomena (Дарио Ардженто / Dario Argento) [1985, Италия, Джалло, HDRip] DVO AVO Гаврилов торрент без регистрации

 
Статистика раздачи
Размер:  2,19 GB   |    Скачан:  159 раз

Полного источника не было: 24 минуты

 
Автор Сообщение

МихаНЕзатор

[] 

Феномен / Phenomena

Страна: Италия
Жанр: Джалло
Год выпуска: 1985
Продолжительность: 01:55:29

Перевод: Профессиональный (двухголосый закадровый)
Перевод (2): Авторский (одноголосый закадровый) Доп.инфо о переводе2 Гаврилов
Cубтитры: русские
Режиссер: Дарио Ардженто / Dario Argento

В ролях: Дженнифер Коннелли, Дария Николоди, Фиоре Ардженто, Далия ди Лазарро, Патрик Буше, Федерика Мастрояни, Дональд Плезенс, Фиоренца Тессари, Марио Донатоне, Франческа Оттавиани

Описание: Красавицу-студентку Дженнифер Корвино родители отправили в престижный женский пансион в Швейцарии. Вскоре выясняется, что девушка - сомнамбула, гуляющая по ночам, в то время как кто-то убивает ее подруг с неподдающейся описанию жестокостью. Весьма странный биолог, изучающий трупных червей и насекомых, берется помочь полиции в определении времени убийств...

Исходник
Качество видео: HDRip
Формат видео: AVI

Видео: 720x432 (1.67:1), 23.976 fps, XviD MPEG-4 ~1748 kbps avg, 0.23 bit/pixel
Аудио: 48 kHz, AC3 Dolby Digital, 3/2 (L,C,R,l,r) + LFE ch, ~384.00 kbps avg
Аудио 2: 48 kHz, AC3 Dolby Digital, 3/2 (L,C,R,l,r) + LFE ch, ~384.00 kbps avg
Аудио 3: 48 kHz, AC3 Dolby Digital, 2/0 (L,R) ch, ~192.00 kbps avg
Формат субтитров: softsub (SRT)

Сравнение TekoRon
http://screenshotcomparison.com/comparison/44533/picture:0

General
Полное имя : С:\Temp\Phenomena.1985\Phenomena.1985.avi
Формат : AVI
Формат/Информация : Audio Video Interleave
Профайл формата : OpenDML
Размер файла : 2.19 GiB
Продолжительность : 1h 55mn
Общий поток : 2 716 Kbps
Программа кодирования : VirtualDubMod 1.5.10.2 (build 2542/release)
Библиотека кодирования : VirtualDubMod build 2542/release

Video
Идентификатор : 0
Формат : MPEG-4 Visual
Профайл формата : Advanced Simple@L5
Параметры BVOP формата : Yes
Параметры QPel формата : No
Параметры GMC формата : No warppoints
Параметры матрицы формата : Custom
Режим смешивания : Packed bitstream
Идентификатор кодека : XVID
Идентификатор кодека/Подсказка : XviD
Продолжительность : 1h 55mn
Битрейт : 1 732 Kbps
Ширина : 720 pixels
Высота : 432 pixels
Соотношение кадра : 1.667
Частота кадров : 23.976 fps
Разрешение : 8 bits
Колориметрия : 4:2:0
Тип развёртки : Progressive
Бит/(Пиксели*Кадры) : 0.232
Размер потока : 1.40 GiB (64%)
Библиотека кодирования : XviD 1.2.0.dev47 (UTC 2006-11-01)

Audio #1
Идентификатор : 1
Формат : AC-3
Формат/Информация : Audio Coding 3
Идентификатор кодека : 2000
Продолжительность : 1h 55mn
Вид битрейта : Constant
Битрейт : 384 Kbps
Канал(ы) : 6 channels
Расположение каналов : Front: L C R, Surround: L R, LFE
Частота : 48.0 KHz
Размер потока : 317 MiB (14%)
Выравнивание : Split accross interleaves
Продолжительность промежутка : 42 ms (1.00 video frame)
Время предзагрузки промежутка : 500 ms

Audio #2
Идентификатор : 2
Формат : AC-3
Формат/Информация : Audio Coding 3
Идентификатор кодека : 2000
Продолжительность : 1h 55mn
Вид битрейта : Constant
Битрейт : 384 Kbps
Канал(ы) : 6 channels
Расположение каналов : Front: L C R, Surround: L R, LFE
Частота : 48.0 KHz
Размер потока : 317 MiB (14%)
Выравнивание : Split accross interleaves
Продолжительность промежутка : 42 ms (1.00 video frame)
Время предзагрузки промежутка : 500 ms

Audio #3
Идентификатор : 3
Формат : AC-3
Формат/Информация : Audio Coding 3
Идентификатор кодека : 2000
Продолжительность : 1h 55mn
Вид битрейта : Constant
Битрейт : 192 Kbps
Канал(ы) : 2 channels
Расположение каналов : L R
Частота : 48.0 KHz
Размер потока : 159 MiB (7%)
Выравнивание : Split accross interleaves
Продолжительность промежутка : 42 ms (1.00 video frame)
Время предзагрузки промежутка : 500 ms
[/spoiler]



Скачать Феномен.Phenomena.(Дарио.Ардженто.Dario.Argento).[1985.Италия.Джалло.HDRip].DVO.AVO.Гаврилов.torrent без регистрации
Золото ЗОЛОТАЯ РАЗДАЧА! СКАЧАННОЕ НЕ ЗАСЧИТЫВАЕТСЯ! Золото
Дата: Зарегистрирован   [ Тип: внутренний ] Как тут cкачать?
MAGNET ссылка
MAGNET ссылка


Скачать .torrent

12 KB

Статус: проверено DHT
Скачан: торрент - 159 раз, раздача полностью - 1 раз
Размер: 2,19 GB
Оценка:  - (Голосов: 0)
Поблагодарили: 0
Поделиться ссылкой на эту раздачу с друзьями:
В контактеFacebookОдноклассникиTwitterLivejournalМой МирLiveinternet
 

 
Показать сообщения:    


Вы не можете начинать темы
Вы не можете отвечать на сообщения
Вы не можете редактировать свои сообщения
Вы не можете удалять свои сообщения
Вы не можете голосовать в опросах
Вы не можете прикреплять файлы к сообщениям
Вы можете скачивать файлы