Loading...
Error

Скачать Достопочтенный джентльмен / The Distinguished Gentleman (Джонатан Линн / Jonathan Lynn) [1992, комедия, криминал, DVDRip] торрент без регистрации

 
Статистика раздачи
Размер:  1,46 GB   |    Скачан:  163 раза
Сидов:  1  [  0 KB/s  ]  
 
Автор Сообщение

МихаНЕзатор

[] 


Достопочтенный джентльмен / The Distinguished Gentleman


Страна: Страна: США
Жанр: Комедия, Криминал
Год выпуска: 1992
Продолжительность: 01:52:23

Перевод: Авторский (одноголосый закадровый) Михалев

Cубтитры: Нет

Режиссер: Джонатан Линн / Jonathan Lynn

В ролях: Эдди Мёрфи
, Лейн Смит, Шерил Ли Ральф, Джо Дон Бейкер, Виктория Роуэлл, Грант Шод, Кевин МакКарти, Чарльз С. Даттон, Виктор Риверс, Чи МакБрайд и др.

Описание: Хитрый мошенник из Флориды хоть и не бедствует, но все же понимает, что больших денег в этой глуши ему не заработать. Его призывно манят столичные толстосумы, с которыми он мог бы дать волю своему таланту. А где их больше всего? Конечно же в Белом Доме!

И ловкий плут отправляется на покорение вершин большой политики, ведь именно там его таланты, как ни странно, оказываются наиболее уместными.

Качество видео: DVDRip - Rip by AngelOfTrue
Формат видео: AVI

Видео: Xvid, 704x384, 23.98fps 1969Kbps
Аудио: Dolby AC3, 48000Hz, stereo, 192kbps

Дополнительная информация:

Релиз групп RG Torrents.ru и All Films

Format : AVI
Format/Info : Audio Video Interleave
File size : 1.46 GiB
Duration : 1h 52mn
Overall bit rate : 1 862 Kbps
Writing application : VirtualDubMod 1.5.10.3 | www.virtualdub-fr.org || (build 2550/release)
Writing library : VirtualDubMod build 2550/release

Video
ID : 0
Format : MPEG-4 Visual
Format profile : Advanced Simple@L5
Format settings, BVOP : 2
Format settings, QPel : No
Format settings, GMC : No warppoints
Format settings, Matrix : Custom
Codec ID : XVID
Codec ID/Hint : XviD
Duration : 1h 52mn
Bit rate : 1 660 Kbps
Width : 704 pixels
Height : 384 pixels
Display aspect ratio : 16:9
Frame rate : 23.976 fps
Color space : YUV
Chroma subsampling : 4:2:0
Bit depth : 8 bits
Scan type : Progressive
Compression mode : Lossy
Bits/(Pixel*Frame) : 0.256
Stream size : 1.30 GiB (89%)
Writing library : XviD 1.2.1 (UTC 2008-12-04)

Audio
ID : 1
Format : AC-3
Format/Info : Audio Coding 3
Mode extension : CM (complete main)
Codec ID : 2000
Duration : 1h 52mn
Bit rate mode : Constant
Bit rate : 192 Kbps
Channel(s) : 2 channels
Channel positions : Front: L R
Sampling rate : 48.0 KHz
Bit depth : 16 bits
Compression mode : Lossy
Stream size : 154 MiB (10%)
Alignment : Split accross interleaves
Interleave, duration : 42 ms (1.00 video frame)
Interleave, preload duration : 500 ms



Скачать Достопочтенный.джентльмен.The.Distinguished.Gentleman.(Джонатан.Линн.Jonathan.Lynn).[1992.комедия.криминал.DVDRip].torrent без регистрации
Золото ЗОЛОТАЯ РАЗДАЧА! СКАЧАННОЕ НЕ ЗАСЧИТЫВАЕТСЯ! Золото
Дата: Зарегистрирован   [ Тип: внутренний ] Как тут cкачать?
MAGNET ссылка
MAGNET ссылка


Скачать .torrent

15 KB

Статус: проверено DHT
Скачан: торрент - 163 раз, раздача полностью - 18 раз
Размер: 1,46 GB
Оценка:  - (Голосов: 0)
Поблагодарили: 0
Поделиться ссылкой на эту раздачу с друзьями:
В контактеFacebookОдноклассникиTwitterLivejournalМой МирLiveinternet
 

 
Показать сообщения:    


Вы не можете начинать темы
Вы не можете отвечать на сообщения
Вы не можете редактировать свои сообщения
Вы не можете удалять свои сообщения
Вы не можете голосовать в опросах
Вы не можете прикреплять файлы к сообщениям
Вы можете скачивать файлы